Ссылка на приватное зеркало нашего сайта всего за 1$. Внимание количество ограничено!!!

2 сезон

iTunes

1 сезон

1

iTunes

iTunes

iTunes

1 сезон

RePack

30

ИГРА 18+

pack

ВАЖНО

!!Акция!!

Alien_RageХит недели

RePack

MK11
pack

Забери бонус

RePack

jed

!!Акция!!

Alien_Rage

RePack

fifa19

RePack

Assassins Creed: Odyssey

RePack

NEED FOR SPEED™ PAYBACK

4 сезон

9 сезон

Бесстыжие 9 сезон

Все сериалы

все сериалы на PB.wtf

RePack

FAR CRY 5
  

Чудо на Гудзоне / Sully (Клинт Иствуд) [2016, драма, биография, BDRip 1080p] Дубляж - [Лицензия / iTunes] pb.wtf

Чудо на Гудзоне через торрент pb.wtf

Размер: 8.19 GB | Добавлен: 3 года 10 мес. назад | Торрент скачан:1451 раз
Скачать  

07-12-2016 12:33 Чудо на Гудзоне Скачать торрент  

Чудо на Гудзоне / Sully

Год выпуска: 2016
Страна: США
Жанр: драма, биография

Продолжительность: 01:35:51
Перевод: Дубляж - [Лицензия / iTunes]
Субтитры: русские (Forced), русские, английские
Режиссер: Клинт Иствуд
В ролях:

Том Хэнкс (Chesley «Sully» Sullenberger), Аарон Экхарт (Jeff Skiles), Валери Махаффей (Diane Higgins), Делфи Хэррингтон (Lucille Palmer), Майк О’Мэлли (Charles Porter), Джейми Шеридан (Ben Edwards), Анна Ганн (Elizabeth Davis), Холт МакКэллани (Mike Cleary), Ахмед Хуссэйн (Egyptian Driver), Лора Линни (Lorraine Sullenberger), Лаура Ланди Уил (Reporter #1), Онира Саттервайт (Reporter #2)
Описание:
Произошедшее 15 января 2009 года назовут «Чудом на Гудзоне». В тот день капитан рейса 1549 Чесли Салленбергер совершил аварийную посадку самолета A320 на холодные воды реки Гудзон в Нью-Йорке. При этом никто из находившихся на борту 155 человек не пострадал. Но, несмотря на все почести со стороны общественности и СМИ, было начато расследование, которое угрожало профессиональной репутации и многолетней карьере капитана Салли.
Рейтинг:

MPAA: PG-13 - Детям до 13 лет просмотр не желателен
Качество: BDRip 1080p
Формат: MKV
Видео: AVC, 1920x804 (2.40:1), 10959 kbps, 23,976 fps, 0,296 bpp
Аудио №1: русский / AC3 / 5.1 / 48 kHz / 384 kbps / |Дубляж, iTunes|
Аудио №2: английский / AC3 / 5.1 / 48 kHz / 640 kbps /
Навигация по главам: есть
Релиз от:
General
Unique ID : 250558617387446516693778421826049504880 (0xBC7FD59B922BB34CAE386AC11D4B7670)
Complete name : E:\Чудо на Гудзоне.1080p.i. Ton.mkv
Format : Matroska
Format version : Version 4 / Version 2
File size : 8.19 GiB
Duration : 1 h 35 min
Overall bit rate : 12.2 Mb/s
Movie name : Чудо на Гудзоне. (Tonik)
Encoded date : UTC 2016-12-07 08:49:24
Writing application : mkvmerge v7.1.0 ('Good Love') 64bit built on Jul 27 2014 13:06:55
Writing library : libebml v1.3.0 + libmatroska v1.4.1

Video
ID : 1
Format : AVC
Format/Info : Advanced Video Codec
Format profile : High@L4.1
Format settings, CABAC : Yes
Format settings, ReFrames : 5 frames
Codec ID : V_MPEG4/ISO/AVC
Duration : 1 h 35 min
Bit rate : 11.0 Mb/s
Width : 1 920 pixels
Height : 804 pixels
Display aspect ratio : 2.40:1
Frame rate mode : Constant
Frame rate : 23.976 (24000/1001) FPS
Color space : YUV
Chroma subsampling : 4:2:0
Bit depth : 8 bits
Scan type : Progressive
Bits/(Pixel*Frame) : 0.296
Stream size : 7.34 GiB (90%)
Writing library : x264 core 148 r2597 e86f3a1
Encoding settings : cabac=1 / ref=5 / deblock=1:-3:-3 / analyse=0x3:0x113 / me=umh / subme=11 / psy=1 / psy_rd=1.00:0.00 / mixed_ref=1 / me_range=48 / chroma_me=1 / trellis=2 / 8x8dct=1 / cqm=0 / deadzone=21,11 / fast_pskip=0 / chroma_qp_offset=-2 / threads=12 / lookahead_threads=3 / sliced_threads=0 / nr=0 / decimate=0 / interlaced=0 / bluray_compat=0 / constrained_intra=0 / bframes=10 / b_pyramid=2 / b_adapt=2 / b_bias=0 / direct=3 / weightb=1 / open_gop=0 / weightp=2 / keyint=240 / keyint_min=24 / scenecut=40 / intra_refresh=0 / rc_lookahead=40 / rc=crf / mbtree=0 / crf=16.7 / qcomp=0.70 / qpmin=0 / qpmax=69 / qpstep=4 / vbv_maxrate=50000 / vbv_bufsize=40000 / crf_max=0.0 / nal_hrd=none / filler=0 / ip_ratio=1.25 / pb_ratio=1.15 / aq=3:0.85
Language : English
Default : Yes
Forced : No

Audio #1
ID : 2
Format : AC-3
Format/Info : Audio Coding 3
Mode extension : CM (complete main)
Format settings, Endianness : Big
Codec ID : A_AC3
Duration : 1 h 35 min
Bit rate mode : Constant
Bit rate : 384 kb/s
Channel(s) : 6 channels
Channel positions : Front: L C R, Side: L R, LFE
Sampling rate : 48.0 kHz
Frame rate : 31.250 FPS (1536 spf)
Compression mode : Lossy
Stream size : 263 MiB (3%)
Title : iTunes
Language : Russian
Default : Yes
Forced : No

Audio #2
ID : 3
Format : AC-3
Format/Info : Audio Coding 3
Mode extension : CM (complete main)
Format settings, Endianness : Big
Codec ID : A_AC3
Duration : 1 h 35 min
Bit rate mode : Constant
Bit rate : 640 kb/s
Channel(s) : 6 channels
Channel positions : Front: L C R, Side: L R, LFE
Sampling rate : 48.0 kHz
Frame rate : 31.250 FPS (1536 spf)
Compression mode : Lossy
Stream size : 439 MiB (5%)
Language : English
Default : No
Forced : No

Text #1
ID : 4
Format : UTF-8
Codec ID : S_TEXT/UTF8
Codec ID/Info : UTF-8 Plain Text
Title : Forced
Language : Russian
Default : Yes
Forced : No

Text #2
ID : 5
Format : UTF-8
Codec ID : S_TEXT/UTF8
Codec ID/Info : UTF-8 Plain Text
Language : Russian
Default : No
Forced : No

Text #3
ID : 6
Format : UTF-8
Codec ID : S_TEXT/UTF8
Codec ID/Info : UTF-8 Plain Text
Language : English
Default : No
Forced : No

Menu
00:00:00.000 : en:00:00:00.000
00:11:12.505 : en:00:11:12.505
00:18:06.168 : en:00:18:06.168
00:29:57.921 : en:00:29:57.921
00:38:55.416 : en:00:38:55.416
00:49:20.749 : en:00:49:20.749
01:00:50.856 : en:01:00:50.856
01:08:16.384 : en:01:08:16.384
01:18:09.810 : en:01:18:09.810
01:26:59.798 : en:01:26:59.798
pb.wtf



Скачать Чудо на Гудзоне через торрент http://i5.imageban.ru/out/2016/12/07/884cac983f214320cb0870cddf3db4dc.jpg Скачать фильм Чудо на Гудзоне через торрент бесплантно в хорошем качестве Описание: Произошедшее 15 января 2009 года назовут «Чудом на Гудзоне». В тот день капитан рейса 1549 Чесли Салленбергер совершил аварийную ... 9.7 10 29
Info! Золотая раздача, скачанное не засчитывается.
Торрент: Зарегистрирован [2016-12-07 12:33] · скачан: 1 451 раз
Статус: √ проверено
Размер: 8.19 GB
Как cкачать? Как скачать Чудо на Гудзоне через торрент | qTorrent

% Раздел Тема Автор DL S | L
Ultra HD (UHD: 2K, 4K, 8K) — видео сверхвысокой чёткости [ 46.37 GB ] Чудо на Гудзоне / Sully [2016 биография UHD BDRemux 2160p] DUB + AVO [Ю. Сербин] sheker187 Скачать
1 | 0
Ultra HD (UHD: 2K, 4K, 8K) — видео сверхвысокой чёткости [ 45.48 GB ] Чудо на Гудзоне / Sully [2016 биография UHD BDRemux 2160p] DUB [] bober100 Скачать
1 | 0
Фильмы с авторской озвучкой [ 2.01 GB ] Чудо на Гудзоне / Sully [2016 биография BDRip] [AVO] killermax2013 Скачать
1 | 0
Фильмы 2016 [DVDrip, WEB-DLRip, HDrip] (DUB, MVO) [ 1.42 GB ] Чудо на Гудзоне / Sully [2016 биография BDRip] - Twi7ter Скачать
1 | 0
Фильмы (Blu-ray, BD-Remux, HDDVD) [ 32.85 GB ] Чудо на Гудзоне / Sully [2016 биография Blu-ray disc 1080p CEE] Dub + Sub Rus + Original Eng voovaz Скачать
1 | 0
Фильмы 2016 [DVDrip, WEB-DLRip, HDrip] (DUB, MVO) [ 1.46 GB ] Чудо на Гудзоне / Sully [2016 биография BDRip] - [] Twi7ter Скачать
1 | 0
R.G. Resident & PiratVoice - Фильмы, Видео [ 1.95 GB ] Чудо на Гудзоне / Sully [2016 биография BDRip-AVC] - R.G.Resident schultz Скачать
2 | 0

28-11-2019 20:33  

Отключить всю рекламу на сайте

10-12-2016 07:46 Чудо на Гудзоне Скачать торрент  

Спасибо!pb.wtf



10-12-2016 10:05 Чудо на Гудзоне Скачать торрент  

как сделать громче?
на пк на максимуме а в фильме голоса еле слышноpb.wtf



10-12-2016 17:39 Чудо на Гудзоне Скачать торрент  

sidorsys писал(а):

как сделать громче?
на пк на максимуме а в фильме голоса еле слышно

Перевести на звуковой и в проигрывателе на звук 2.0 или 2.1.pb.wtf



13-12-2016 16:22 Чудо на Гудзоне Скачать торрент  

Классный фильм. Только вот как-то хотелось бы подлиньше его посмотреть, а то как то обрывается и всё.pb.wtf



    Дорогой пользователь! Огромная просьба, поблагодарите релизера, оцените раздачу и оставьте свои комментарий, если Вы скачали Чудо на Гудзоне через торрент бесплатно! Внесите свою лепту в развитие PiratBit!
    Комментировать посты могут только пользователи прошедшие не сложную регистрацию
    Показать сообщения:    

    Чудо на Гудзоне через торрент
    Скачать бесплатно Чудо на Гудзоне
    Чудо на Гудзоне скачать торрент
    Чудо на Гудзоне смотреть онлайн
    Cкачать фильм Чудо на Гудзоне бесплатно
    Чудо на Гудзоне скачать торрент в хорошем качестве
    Чудо на Гудзоне смотреть онлайн бесплатно в хорошем качестве


    Вы не можете начинать темы
    Вы не можете отвечать на сообщения
    Вы не можете редактировать свои сообщения
    Вы не можете удалять свои сообщения
    Вы не можете голосовать в опросах
    Вы не можете прикреплять файлы к сообщениям
    Вы можете скачивать файлы