Ссылка на приватное зеркало нашего сайта всего за 1$. Внимание количество ограничено!!!

2 сезон

iTunes

1 сезон

1

iTunes

iTunes

iTunes

1 сезон

RePack

30

ИГРА 18+

pack

ВАЖНО

!!Акция!!

Alien_RageХит недели

RePack

MK11
pack

Забери бонус

RePack

jed

!!Акция!!

Alien_Rage

RePack

fifa19

RePack

Assassins Creed: Odyssey

RePack

NEED FOR SPEED™ PAYBACK

4 сезон

9 сезон

Бесстыжие 9 сезон

Все сериалы

все сериалы на PB.wtf

RePack

FAR CRY 5
  

Казаки / Сезон: 1 / Серии: 1-16 из 16 (Станислав Мареев) [2016, история, криминал, HDTVRip] pb.wtf

Казаки через торрент pb.wtf

Размер: 4.36 GB | Добавлен: 3 года 10 мес. назад | Торрент скачан:105 раз
Скачать  

07-12-2016 17:55 Казаки Скачать торрент  

Казаки
Сезон: 1 / Серии: 1-16 из 16

Оригинальное название: Казаки
Год выпуска: 2016
Страна: Россия
Жанр: Детектив, приключения
Перевод: Не требуется
Режиссер: Станислав Мареев
В ролях: Антон Пампушный, Владимир Гостюхин, Евгений Сидихин, Полина Сидихина, Андрей Ильин, Олег Морозов, Алексей Гришин, Владислав Дёмин, Карина Реука, Ирина Основина, Олег Метелев, Игорь Скрипко, Виктория Полторак, Лилия Кондрова, Елена Аросьева, Екатерина Долгова, Олег Радченко

О фильме:
Майор полиции Егор Даурский в частном порядке расследует убийство своего друга полковника полиции и его жены, в станице Краснодарского края. Здесь он сталкивается с беспределом местной преступной группировки под предводительством некоего Сурового. Также он знакомится с местными казаками и их атаманом Петром Лазаревым, которые противостоят откровенному беспределу властей и криминала. Даурскому удаётся раскрыть убийство друга и наказать виновных. Завершив дело, он возвращается в Москву для того, чтобы перевестись в станицу. Вместе с казаками он надеется избавить местечко от Сурового и его группировки.

Студия: Кинокомпания «Star Media»
Продолжительность: 16 x ~ 00:45:00

Формат: AVI
Качество: HDTVRip
Видео: XviD build 73, 592x336 (16:9), 25.000 fps, ~ 750 Kbps (~ 0.150 bit/pixel)
Звук: 48.0 kHz, MP3, 2/0 ch, 128 kbps
Рекламы: нет
General
Complete name : Downloads\Kazaki (2016).HDTVRip.RG.Russkie.serialy.&.Files-x
Format : AVI
Format/Info : Audio Video Interleave
Overall bit rate : 1 695 Kbps
Writing application : VirtualDubMod 1.5.10.3 (build 2550/release)
Writing library : VirtualDubMod build 2550/release
Video #0
ID : 0
Format : MPEG-4 Visual
Format profile : Advanced Simple@L5
Format settings, BVOP : 1
Format settings, QPel : No
Format settings, GMC : No warppoints
Format settings, Matrix : Custom
Codec ID : XVID
Codec ID/Hint : XviD
Bit rate : 1 492 Kbps
Width : 720 pixels
Height : 400 pixels
Display aspect ratio : 16:9
Frame rate : 25.000 fps
Color space : YUV
Chroma subsampling : 4:2:0
Bit depth : 8 bits
Scan type : Progressive
Compression mode : Lossy
Bits/(Pixel*Frame) : 0.207
Stream size : 15.3 MiB (88%)
Writing library : XviD 73
Audio #1
ID : 1
Format : AC-3
Format/Info : Audio Coding 3
Mode extension : CM (complete main)
Format settings, Endianness : Big
Codec ID : 2000
Bit rate mode : Constant
Bit rate : 192 Kbps
Channel(s) : 2 channels
Channel positions : Front: L R
Sampling rate : 48.0 KHz
Bit depth : 16 bits
Compression mode : Lossy
Delay relative to video : 24ms
Stream size : 1.97 MiB (11%)
Alignment : Split accross interleaves
Interleave, duration : 40 ms (1.01 video frame)
Interleave, preload duration : 500 ms
pb.wtf



Скачать Казаки через торрент http://pic1.kartinco.top/images/11/5iofl.jpg Скачать фильм Казаки через торрент бесплантно в хорошем качестве О фильме: Майор полиции Егор Даурский в частном порядке расследует убийство своего друга полковника полиции и его жены, в станице ... 8.7 10 9
Торрент: Зарегистрирован [2016-12-07 17:55] · скачан: 105 раз
Статус: √ проверено
Размер: 4.36 GB
Как cкачать? Как скачать Казаки через торрент | qTorrent

% Раздел Тема Автор DL S | L
T Релизы по Парсеру [Игры, Сериалы и Фильмы и другое...] [ 74.22 GB ] Глухарь / Сезон: 1-3 / Серии: 1-160 из 160 [2008-2011 DVDRip] -Lexx- Скачать
1 | 0
Наши сериалы [ 9.54 GB ] Учитель в законе. Схватка / Сезон: 4 / Серии: 1-16 из 16 [2017 SATRip] nobana Скачать
1 | 0
Наши сериалы [ 8.58 GB ] Казаки / Сезон: 1 / Серии: 1-16 из 16 [2016 история HDTVRip] Re2sgsII Скачать
1 | 0


Последний раз редактировалось: Re2sgsII (2016-12-08 13:38), всего редактировалось 2 раз(а)

28-11-2019 20:33  

Отключить всю рекламу на сайте

07-12-2016 19:08 Казаки Скачать торрент  

Re2sgsII, скриншоты не соответствуют заявленному разрешению
Как сделать скриншот? pb.wtf



07-12-2016 23:49 Казаки Скачать торрент  

А тут точно все серии? А то как то мало место занимаетpb.wtf



08-12-2016 04:18 Казаки Скачать торрент  

Kobik писал(а):

А тут точно все серии? А то как то мало место занимает

А сделать ТЫЦ в список файлов вера не позволяет? pb.wtf



    Дорогой пользователь! Огромная просьба, поблагодарите релизера, оцените раздачу и оставьте свои комментарий, если Вы скачали Казаки через торрент бесплатно! Внесите свою лепту в развитие PiratBit!
    Комментировать посты могут только пользователи прошедшие не сложную регистрацию
    Показать сообщения:    

    Казаки через торрент
    Скачать бесплатно Казаки
    Казаки скачать торрент
    Казаки смотреть онлайн
    Cкачать фильм Казаки бесплатно
    Казаки скачать торрент в хорошем качестве
    Казаки смотреть онлайн бесплатно в хорошем качестве


    Вы не можете начинать темы
    Вы не можете отвечать на сообщения
    Вы не можете редактировать свои сообщения
    Вы не можете удалять свои сообщения
    Вы не можете голосовать в опросах
    Вы не можете прикреплять файлы к сообщениям
    Вы можете скачивать файлы