2 сезон

iTunes

1 сезон

1

iTunes

iTunes

iTunes

1 сезон

RePack

30

ИГРА 18+

pack

ВАЖНО

!!Акция!!

Alien_RageХит недели

RePack

MK11
pack

Забери бонус

RePack

jed

!!Акция!!

Alien_Rage

RePack

fifa19

RePack

Assassins Creed: Odyssey

RePack

NEED FOR SPEED™ PAYBACK

4 сезон

9 сезон

Бесстыжие 9 сезон

Все сериалы

все сериалы на PB.wtf

RePack

FAR CRY 5
  

Аисты / Storks (Николас Столлер , Даг Свитлэнд) [2016, мультфильм, фэнтези, комедия, BDRip] Дубляж - [Лицензия / iTunes] pb.wtf

Аисты через торрент pb.wtf

Размер: 1.42 GB | Добавлен: 3 года 10 мес. назад | Торрент скачан:1129 раз
Скачать  

07-12-2016 18:58 Аисты Скачать торрент  

Аисты / Storks

Год выпуска: 2016
Страна: США
Жанр: мультфильм, фэнтези, комедия, приключения, семейный

Продолжительность: 01:26:57
Перевод: Дубляж - [Лицензия / iTunes]
Субтитры: Русские на надписи и пр. (отдельно)
Режиссер: Николас Столлер , Даг Свитлэнд
В ролях:

Энди Сэмберг (Junior, озвучка), Кэти Краун (Tulip, озвучка), Келси Грэммер (Hunter, озвучка), Дженнифер Энистон (Sarah Gardner, озвучка), Тай Бурелл (Henry Gardner, озвучка), Антон Старкман (Nate Gardner, озвучка), Кигэн-Майкл Ки (Alpha Wolf, озвучка), Джордан Пил (Beta Wolf, озвучка), Дэнни Трехо (Jasper, озвучка), Стив Гликман (Pigeon Toady, озвучка), Кристофер Николас Смит (Dougland, озвучка), Аквафина (Quail, озвучка)
Описание:
Аисты приносят детей... или, во всяком случае, раньше приносили. Теперь же они занимаются доставкой посылок для огромного сайта интернет-продаж. Джуниор, лучший аист в курьерской компании, должен пойти на повышение, но он случайно активирует машину для создания детей и получает очаровательную, но совершенно незапланированную девочку.
Рейтинг:

MPAA: PG - Рекомендуется присутствие родителей
Качество: BDRip
Формат: AVI
Видео: XviD, 720x304 (2.35:1), 23.976 fps, 1948 kbps
Аудио: AC3 / 5.1 / 48 kHz / 384 kbps /
Релиз от: MegaPeer
Общее
Полное имя : E:\Storks.2016.BDRip.1.42Gb.MegaPeer\Storks.2016.BDRip.1.42Gb.MegaPeer.avi
Формат : AVI
Формат/Информация : Audio Video Interleave
Размер файла : 1,42 Гбайт
Продолжительность : 1 ч. 26 м.
Общий поток : 2340 Кбит/сек

Видео
Идентификатор : 0
Формат : MPEG-4 Visual
Профиль формата : Advanced Simple@L5
Параметр BVOP формата : 1
Параметр QPel формата : Нет
Параметр GMC формата : Без точки перехода
Параметр матрицы формата : Выборочная
Идентификатор кодека : XVID
Идентификатор кодека/Подсказка : XviD
Продолжительность : 1 ч. 26 м.
Битрейт : 1949 Кбит/сек
Ширина : 720 пикселей
Высота : 304 пикселя
Соотношение сторон : 2,35:1
Частота кадров : 23,976 (24000/1001) кадра/сек
Цветовое пространство : YUV
Субдискретизация насыщенности : 4:2:0
Битовая глубина : 8 бит
Тип развёртки : Прогрессивная
Метод сжатия : С потерями
Бит/(Пиксели*Кадры) : 0.371
Размер потока : 1,18 Гбайт (83%)
Библиотека кодирования : XviD 73

Аудио
Идентификатор : 1
Формат : AC-3
Формат/Информация : Audio Coding 3
Расширение режима : CM (complete main)
Параметр Endianness формата : Big
Идентификатор кодека : 2000
Продолжительность : 1 ч. 26 м.
Вид битрейта : Постоянный
Битрейт : 384 Кбит/сек
Каналы : 6 каналов
Расположение каналов : Front: L C R, Side: L R, LFE
Частота : 48,0 КГц
Частота кадров : 31,250 кадров/сек (1536 spf)
Битовая глубина : 16 бит
Метод сжатия : С потерями
Размер потока : 239 Мбайт (16%)
Выравнивание : Соединение по промежуткам
Продолжительность промежутка : 64 мс. (1,53 видеокадра)
Время предзагрузки промежутка : 192 мс.
Заголовок : iTunes
pb.wtf



Скачать Аисты через торрент http://i2.imageban.ru/out/2016/12/07/df263d5412863d7dc7905216e32f98f2.jpg Скачать фильм Аисты через торрент бесплантно в хорошем качестве Описание: Аисты приносят детей... или, во всяком случае, раньше приносили. Теперь же они занимаются доставкой посылок для огромного сайта ... 10 10 17
Info! Золотая раздача, скачанное не засчитывается.
Торрент: Зарегистрирован [2016-12-07 19:08] · скачан: 1 129 раз
Статус: √ проверено
Размер: 1.42 GB
Как cкачать? Как скачать Аисты через торрент | qTorrent

% Раздел Тема Автор DL S | L
3D Мультфильмы [ 5.15 GB ] Аисты в 3D / Storks in 3D [2016 Мультфильм BDRip 1080p ] Анаглиф slaventi-69 Скачать
1 | 0
Зарубежные Мультфильмы (BDRip 1080p, 720p, Blu-ray, BD-Remux) [ 4 GB ] Аисты / Storks [2016 Мультфильм BDRip 720p] DUB [] bober100 Скачать
1 | 0
Зарубежные Мультфильмы (BDRip 1080p, 720p, Blu-ray, BD-Remux) [ 16.97 GB ] Аисты / Storks [2016 Мультфильм BD Remux 1080p] DUB [] bober100 Скачать
2 | 0
Иностранные мультфильмы [ 1.46 GB ] Аисты / Storks [2016 мультфильм BDRip] - [] Twi7ter Скачать
3 | 0
Зарубежные Мультфильмы (BDRip 1080p, 720p, Blu-ray, BD-Remux) [ 7.63 GB ] Аисты / Storks [2016 мультфильм BDRip 1080p] - [] -Lexx- Скачать
1 | 0
3D Мультфильмы [ 9.19 GB ] Аисты в 3Д / Storks 3D [2016 мультфильм BDRip 1080p] - / Half OverUnder sheker187 Скачать
1 | 0
3D Мультфильмы [ 13.98 GB ] Аисты в 3Д / Storks 3D [2016 Мультфильм Семейны BDrip 1080p] OverUnder / Вертикальная стереопара serega768 Скачать
1 | 0

28-11-2019 20:33  

Отключить всю рекламу на сайте

02-01-2017 21:17 Аисты Скачать торрент  

однозначно к просмотру, мульт прикольный, я даже немного растрогался в конце...pb.wtf



    Дорогой пользователь! Огромная просьба, поблагодарите релизера, оцените раздачу и оставьте свои комментарий, если Вы скачали Аисты через торрент бесплатно! Внесите свою лепту в развитие PiratBit!
    Комментировать посты могут только пользователи прошедшие не сложную регистрацию
    Показать сообщения:    

    Аисты через торрент
    Скачать бесплатно Аисты
    Аисты скачать торрент
    Аисты смотреть онлайн
    Cкачать фильм Аисты бесплатно
    Аисты скачать торрент в хорошем качестве
    Аисты смотреть онлайн бесплатно в хорошем качестве


    Вы не можете начинать темы
    Вы не можете отвечать на сообщения
    Вы не можете редактировать свои сообщения
    Вы не можете удалять свои сообщения
    Вы не можете голосовать в опросах
    Вы не можете прикреплять файлы к сообщениям
    Вы можете скачивать файлы