Ссылка на приватное зеркало всего за 1$. Внимание количество ограничено!!!

iTunes

iTunes

iTunes

1

iTunes

iTunes

iTunes

iTunes

iTunes

30
pack

$ от Little Big

ВАЖНО

!!Акция!!

Alien_RageХит недели

RePack

Resident Evil 21

ИГРА 18+

pack

RePack

jed

!!Акция!!

Alien_Rage

RePack

fifa19

RePack

Assassins Creed: Odyssey

RePack

NEED FOR SPEED™ PAYBACK

4 сезон

9 сезон

Бесстыжие 9 сезон

Все сериалы

все сериалы на PB.wtf

RePack

FAR CRY 5
  

Аисты / Storks (Николас Столлер, Даг Свитлэнд) [2016, мультфильм, фэнтези, комедия, BDRip-AVС] Дубляж - [Лицензия / iTunes] R.G.Resident pb.wtf

Аисты через торрент pb.wtf

Раздают: 1 [ 0 KB/s ]
Размер: 2.32 GB | Добавлен: 3 года 7 мес. назад | Торрент скачан:1004 раза
Скачать  

08-12-2016 06:39 Аисты Скачать торрент  

Аисты / Storks
««From the studio that delivered The Lego Movie»»

Год выпуска: 2016
Страна: США
Жанр: мультфильм, фэнтези, комедия, приключения, семейный
Продолжительность: 01:26:57
Перевод: Дубляж - [Лицензия / iTunes]
Субтитры: русские (Forced), русские (Full), английские (Full), английские (SDH)
Режиссер: Николас Столлер, Даг Свитлэнд
В ролях:

Энди Сэмберг (Junior, озвучка), Кэти Краун (Tulip, озвучка), Келси Грэммер (Hunter, озвучка), Дженнифер Энистон (Sarah Gardner, озвучка), Тай Бурелл (Henry Gardner, озвучка), Антон Старкман (Nate Gardner, озвучка), Кигэн-Майкл Ки (Alpha Wolf, озвучка), Джордан Пил (Beta Wolf, озвучка), Дэнни Трехо (Jasper, озвучка), Стив Гликман (Pigeon Toady, озвучка), Кристофер Николас Смит (Dougland, озвучка), Аквафина (Quail, озвучка)
Описание:
Аисты приносят детей... или, во всяком случае, раньше приносили. Теперь же они занимаются доставкой посылок для огромного сайта интернет-продаж. Джуниор, лучший аист в курьерской компании, должен пойти на повышение, но он случайно активирует машину для создания детей и получает очаровательную, но совершенно незапланированную девочку.
Мировая премьера: 22 сентября 2016

MPAA: PG - Рекомендуется присутствие родителей
Качество: BDRip-AVC Rip by
Формат: MKV
Видео: AVC, 1024x428 (2.40:1), 2991 kbps, 23,976 fps, 0,285 bpp
Аудио №1: русский / AC3 / 5.1 / 48 kHz / 384 kbps /
Аудио №2: английский / AC3 / 5.1 / 48 kHz / 448 kbps /
General
Unique ID : 174467763755453865222278859387105056663 (0x834144E0C4A93F90B8AC6BEBD7061797)
Complete name : D:\download\Storks.2016.BDRip-AVC by schultz R.G.Resident.mkv
Format : Matroska
Format version : Version 4 / Version 2
File size : 2.32 GiB
Duration : 1 h 26 min
Overall bit rate : 3 826 kb/s
Encoded date : UTC 2016-12-08 06:11:42
Writing application : mkvmerge v8.9.0 ('Father Daughter') 64bit
Writing library : libebml v1.3.3 + libmatroska v1.4.4

Video
ID : 1
Format : AVC
Format/Info : Advanced Video Codec
Format profile : High@L4.1
Format settings, CABAC : Yes
Format settings, ReFrames : 12 frames
Codec ID : V_MPEG4/ISO/AVC
Duration : 1 h 26 min
Bit rate : 2 991 kb/s
Width : 1 024 pixels
Height : 428 pixels
Display aspect ratio : 2.40:1
Frame rate mode : Constant
Frame rate : 23.976 (23976/1000) FPS
Color space : YUV
Chroma subsampling : 4:2:0
Bit depth : 8 bits
Scan type : Progressive
Bits/(Pixel*Frame) : 0.285
Stream size : 1.82 GiB (78%)
Writing library : x264 core 146 r2538 121396c
Encoding settings : cabac=1 / ref=12 / deblock=1:-3:-3 / analyse=0x3:0x113 / me=umh / subme=11 / psy=1 / psy_rd=1.00:0.00 / mixed_ref=1 / me_range=48 / chroma_me=1 / trellis=2 / 8x8dct=1 / cqm=0 / deadzone=21,11 / fast_pskip=0 / chroma_qp_offset=-2 / threads=12 / lookahead_threads=3 / sliced_threads=0 / nr=0 / decimate=0 / interlaced=0 / bluray_compat=0 / constrained_intra=0 / bframes=11 / b_pyramid=2 / b_adapt=2 / b_bias=0 / direct=3 / weightb=1 / open_gop=0 / weightp=2 / keyint=240 / keyint_min=23 / scenecut=40 / intra_refresh=0 / rc_lookahead=40 / rc=2pass / mbtree=1 / bitrate=2991 / ratetol=1.0 / qcomp=0.60 / qpmin=0 / qpmax=69 / qpstep=4 / cplxblur=20.0 / qblur=0.5 / vbv_maxrate=50000 / vbv_bufsize=62500 / nal_hrd=none / filler=0 / ip_ratio=1.40 / aq=1:1.00
Language : English
Default : Yes
Forced : No

Audio #1
ID : 2
Format : AC-3
Format/Info : Audio Coding 3
Mode extension : CM (complete main)
Format settings, Endianness : Big
Codec ID : A_AC3
Duration : 1 h 26 min
Bit rate mode : Constant
Bit rate : 384 kb/s
Channel(s) : 6 channels
Channel positions : Front: L C R, Side: L R, LFE
Sampling rate : 48.0 kHz
Frame rate : 31.250 FPS (1536 spf)
Compression mode : Lossy
Stream size : 239 MiB (10%)
Language : Russian
Default : Yes
Forced : No

Audio #2
ID : 3
Format : AC-3
Format/Info : Audio Coding 3
Mode extension : CM (complete main)
Format settings, Endianness : Big
Codec ID : A_AC3
Duration : 1 h 26 min
Bit rate mode : Constant
Bit rate : 448 kb/s
Channel(s) : 6 channels
Channel positions : Front: L C R, Side: L R, LFE
Sampling rate : 48.0 kHz
Frame rate : 31.250 FPS (1536 spf)
Compression mode : Lossy
Stream size : 279 MiB (12%)
Language : English
Default : No
Forced : No

Text #1
ID : 4
Format : UTF-8
Codec ID : S_TEXT/UTF8
Codec ID/Info : UTF-8 Plain Text
Duration : 1 h 0 min
Bit rate : 2 b/s
Count of elements : 30
Stream size : 1.06 KiB (0%)
Title : Forced
Language : Russian
Default : Yes
Forced : No

Text #2
ID : 5
Format : UTF-8
Codec ID : S_TEXT/UTF8
Codec ID/Info : UTF-8 Plain Text
Duration : 1 h 21 min
Bit rate : 109 b/s
Count of elements : 1447
Stream size : 64.9 KiB (0%)
Title : Full
Language : Russian
Default : No
Forced : No

Text #3
ID : 6
Format : UTF-8
Codec ID : S_TEXT/UTF8
Codec ID/Info : UTF-8 Plain Text
Duration : 1 h 26 min
Bit rate : 79 b/s
Count of elements : 1721
Stream size : 50.5 KiB (0%)
Title : Full
Language : English
Default : No
Forced : No

Text #4
ID : 7
Format : UTF-8
Codec ID : S_TEXT/UTF8
Codec ID/Info : UTF-8 Plain Text
Duration : 1 h 22 min
Bit rate : 82 b/s
Count of elements : 1707
Stream size : 49.6 KiB (0%)
Title : SDH
Language : English
Default : No
Forced : No

Menu
00:00:00.000 : en:Chapter 1
00:10:26.500 : en:Chapter 2
00:20:35.734 : en:Chapter 3
00:30:24.405 : en:Chapter 4
00:39:30.034 : en:Chapter 5
00:50:24.479 : en:Chapter 6
00:59:24.435 : en:Chapter 7
01:07:06.022 : en:Chapter 8
01:14:28.297 : en:Chapter 9
01:20:53.598 : en:Chapter 10

pb.wtf



Скачать Аисты через торрент http://i77.fastpic.ru/big/2016/0417/a7/808a646271c761f7c7d87df3d366b3a7.png Скачать фильм Аисты через торрент бесплантно в хорошем качестве Описание: Аисты приносят детей... или, во всяком случае, раньше приносили. Теперь же они занимаются доставкой посылок для огромного сайта ... 9.5 10 20
Info! Золотая раздача, скачанное не засчитывается.
Торрент: Зарегистрирован [2016-12-08 06:39] · скачан: 1 004 раз
Статус: √ проверено
Размер: 2.32 GB
Как cкачать? Как скачать Аисты через торрент | qTorrent

28-11-2019 20:33  

Отключить всю рекламу на сайте

    Дорогой пользователь! Огромная просьба, поблагодарите релизера, оцените раздачу и оставьте свои комментарий, если Вы скачали Аисты через торрент бесплатно! Внесите свою лепту в развитие PiratBit!
    Комментировать посты могут только пользователи прошедшие не сложную регистрацию
    Показать сообщения:    

    Аисты через торрент
    Скачать бесплатно Аисты
    Аисты скачать торрент
    Аисты смотреть онлайн
    Cкачать фильм Аисты бесплатно
    Аисты скачать торрент в хорошем качестве
    Аисты смотреть онлайн бесплатно в хорошем качестве


    Вы не можете начинать темы
    Вы не можете отвечать на сообщения
    Вы не можете редактировать свои сообщения
    Вы не можете удалять свои сообщения
    Вы не можете голосовать в опросах
    Вы не можете прикреплять файлы к сообщениям
    Вы можете скачивать файлы