Ссылка на приватное зеркало нашего сайта всего за 1$. Внимание количество ограничено!!!

2 сезон

iTunes

1 сезон

1

2 сезон

2 сезон

iTunes

1 сезон

RePack

30

Ultimate

ВАЖНО

ИГРА 18+

pack

RePack

MK11
pack

Забери бонус

RePack

jed

!!Акция!!

Alien_Rage

RePack

fifa19

RePack

Assassins Creed: Odyssey

RePack

NEED FOR SPEED™ PAYBACK

4 сезон

9 сезон

Бесстыжие 9 сезон

Все сериалы

все сериалы на PB.wtf

RePack

FAR CRY 5
  

Призрак Оперы / The Phantom of the Opera (Теренс Фишер) [1962, ужасы, триллер, драма, детектив, музыка, BDRip 1080p by msltel] VO pb.wtf

Призрак Оперы через торрент pb.wtf

Размер: 8.74 GB | Добавлен: 3 года 11 мес. назад | Торрент скачан:2 раза
Скачать  

08-12-2016 11:14 Призрак Оперы Скачать торрент  

Название: Призрак Оперы
Оригинальное название: The Phantom of the Opera
Год выпуска: 1962
Страна: Великобритания
Жанр: ужасы, триллер, драма, детектив, музыка
Продолжительность: 01:24:12
Перевод: любительский одноголосый

Режиссёр: Теренс Фишер

В ролях: Херберт Лом, Хезер Сирс, Эдвард Де Соуза, Торли Уолтерс, Майкл Гоф, Харольд Гудвин, Мартин Миллер, Окин, Соня Кордо, Марни Мейтленд

Описание: Лондон, полный кэбов и газовых фонарей. Девяностые годы XIX века. Призрак в фильме — совершенно обычный, всю жизнь проживший благополучно, человек и очень милый благовидный профессор музыки по имени Питри. Он обезображен в результате злодейских происков владельца Оперы с композиторскими амбициями лорда д`Арси, а также кислотой и пламенем пожара в типографии, куда пришёл уничтожить тираж партитуры новой оперы, написанной им и нагло присвоенной лордом... Фильм по роману Гастона Леру.



Качество: BDRip 1080p Сравнение с исходником
Формат: MKV
Видео: MPEG-4 AVC, 14.5 Mбит/с, 1920x1036, 23,976 кадра/с
Аудио 1: русский, AC3, 192 kbps, 2 ch, 48 kHz [любительский одноголосый, Oneinchnales]
Аудио 2: английский, AC3, 192 kbps, 2 ch, 48 kHz [оригинал]
Субтитры 1: русские
Субтитры 2: русские (песни)
Субтитры 3: английские
Имеются неименованные главы/чаптеры.
Общее
Уникальный идентификатор : 209221745689467447709755934124751810109 (0x9D66A47B24EB75FDA957D5F27FC16E3D)
Полное имя : D:\Video\Призрак оперы.1962.BDRip.1080p by msltel.mkv
Формат : Matroska
Версия формата : Version 4 / Version 2
Размер файла : 8,74 Гбайт
Продолжительность : 1 ч. 24 м.
Общий поток : 14,9 Мбит/сек
Название фильма : Rip by msltel
Дата кодирования : UTC 2016-12-08 04:19:47
Программа кодирования : mkvmerge v8.2.0 ('World of Adventure') 64bit
Библиотека кодирования : libebml v1.3.1 + libmatroska v1.4.2

Видео
Идентификатор : 1
Формат : AVC
Формат/Информация : Advanced Video Codec
Профиль формата : High@L4.1
Параметр CABAC формата : Да
Параметр ReFrames формата : 4 кадра
Идентификатор кодека : V_MPEG4/ISO/AVC
Продолжительность : 1 ч. 24 м.
Битрейт : 14,5 Мбит/сек
Ширина : 1920 пикселей
Высота : 1036 пикселей
Соотношение сторон : 1,85:1
Режим частоты кадров : Постоянный
Частота кадров : 23,976 (24000/1001) кадра/сек
Цветовое пространство : YUV
Субдискретизация насыщенности : 4:2:0
Битовая глубина : 8 бит
Тип развёртки : Прогрессивная
Бит/(Пиксели*Кадры) : 0.303
Размер потока : 8,51 Гбайт (97%)
Библиотека кодирования : x264 core 146 r2538 121396c
Настройки программы : cabac=1 / ref=4 / deblock=1:-3:-3 / analyse=0x3:0x113 / me=umh / subme=9 / psy=1 / psy_rd=1.00:0.15 / mixed_ref=1 / me_range=32 / chroma_me=1 / trellis=1 / 8x8dct=1 / cqm=0 / deadzone=21,11 / fast_pskip=0 / chroma_qp_offset=-3 / threads=6 / lookahead_threads=1 / sliced_threads=0 / nr=0 / decimate=1 / interlaced=0 / bluray_compat=0 / constrained_intra=0 / bframes=16 / b_pyramid=2 / b_adapt=2 / b_bias=0 / direct=1 / weightb=0 / open_gop=0 / weightp=2 / keyint=230 / keyint_min=23 / scenecut=40 / intra_refresh=0 / rc_lookahead=40 / rc=crf / mbtree=0 / crf=21.8 / qcomp=0.60 / qpmin=0 / qpmax=69 / qpstep=4 / vbv_maxrate=50000 / vbv_bufsize=62500 / crf_max=0.0 / nal_hrd=none / filler=0 / ip_ratio=1.40 / pb_ratio=1.30 / aq=1:1.00
Язык : English
Default : Да
Forced : Нет

Аудио #1
Идентификатор : 2
Формат : AC-3
Формат/Информация : Audio Coding 3
Расширение режима : CM (complete main)
Параметр Endianness формата : Big
Идентификатор кодека : A_AC3
Продолжительность : 1 ч. 24 м.
Вид битрейта : Постоянный
Битрейт : 192 Кбит/сек
Каналы : 2 канала
Расположение каналов : Front: L R
Частота : 48,0 КГц
Частота кадров : 31,250 кадров/сек (1536 spf)
Метод сжатия : С потерями
Размер потока : 116 Мбайт (1%)
Заголовок : любительский одноголосый, Oneinchnales
Язык : Russian
Default : Да
Forced : Нет

Аудио #2
Идентификатор : 3
Формат : AC-3
Формат/Информация : Audio Coding 3
Расширение режима : CM (complete main)
Параметр Endianness формата : Big
Идентификатор кодека : A_AC3
Продолжительность : 1 ч. 24 м.
Вид битрейта : Постоянный
Битрейт : 192 Кбит/сек
Каналы : 2 канала
Расположение каналов : Front: L R
Частота : 48,0 КГц
Частота кадров : 31,250 кадров/сек (1536 spf)
Метод сжатия : С потерями
Размер потока : 116 Мбайт (1%)
Заголовок : original
Язык : English
Default : Нет
Forced : Нет

Текст #1
Идентификатор : 4
Формат : UTF-8
Идентификатор кодека : S_TEXT/UTF8
Идентификатор кодека/Информация : UTF-8 Plain Text
Продолжительность : 1 ч. 23 м.
Битрейт : 61 бит/сек
Count of elements : 661
Размер потока : 37,5 Кбайт (0%)
Заголовок : русские
Язык : Russian
Default : Да
Forced : Нет

Текст #2
Идентификатор : 5
Формат : UTF-8
Идентификатор кодека : S_TEXT/UTF8
Идентификатор кодека/Информация : UTF-8 Plain Text
Продолжительность : 1 ч. 23 м.
Битрейт : 6 бит/сек
Count of elements : 92
Размер потока : 4,25 Кбайт (0%)
Заголовок : русские (песни)
Язык : Russian
Default : Нет
Forced : Да

Текст #3
Идентификатор : 6
Формат : UTF-8
Идентификатор кодека : S_TEXT/UTF8
Идентификатор кодека/Информация : UTF-8 Plain Text
Продолжительность : 1 ч. 20 м.
Битрейт : 52 бит/сек
Count of elements : 920
Размер потока : 30,7 Кбайт (0%)
Заголовок : английские
Язык : English
Default : Нет
Forced : Нет

Меню
00:00:00.000 : en:
00:14:16.605 : en:
00:26:48.440 : en:
00:42:12.530 : en:
01:00:45.266 : en:
01:14:09.403 : en:
pb.wtf



Скачать Призрак Оперы через торрент http://s020.radikal.ru/i709/1612/69/b692de859720.jpg Скачать фильм Призрак Оперы через торрент бесплантно в хорошем качестве Описание: Лондон, полный кэбов и газовых фонарей. Девяностые годы XIX века. Призрак в фильме — совершенно обычный, всю жизнь проживший ... 9 10 1
Info! Золотая раздача, скачанное не засчитывается.
Торрент: Зарегистрирован [2016-12-08 11:14] · скачан: 2 раз
Статус: √ проверено
Размер: 8.74 GB
Как cкачать? Как скачать Призрак Оперы через торрент | qTorrent

% Раздел Тема Автор DL S | L
Фильмы [HD 720p, 1080p] (Звук Cam, VO, DVO) [ 3.45 GB ] Призрак Оперы / The Phantom of the Opera [1962 музыка BDRip 720p by msltel] VO msltel Скачать
1 | 0

28-11-2019 20:33  

Отключить всю рекламу на сайте

    Дорогой пользователь! Огромная просьба, поблагодарите релизера, оцените раздачу и оставьте свои комментарий, если Вы скачали Призрак Оперы через торрент бесплатно! Внесите свою лепту в развитие PiratBit!
    Комментировать посты могут только пользователи прошедшие не сложную регистрацию
    Показать сообщения:    

    Призрак Оперы через торрент
    Скачать бесплатно Призрак Оперы
    Призрак Оперы скачать торрент
    Призрак Оперы смотреть онлайн
    Cкачать фильм Призрак Оперы бесплатно
    Призрак Оперы скачать торрент в хорошем качестве
    Призрак Оперы смотреть онлайн бесплатно в хорошем качестве


    Вы не можете начинать темы
    Вы не можете отвечать на сообщения
    Вы не можете редактировать свои сообщения
    Вы не можете удалять свои сообщения
    Вы не можете голосовать в опросах
    Вы не можете прикреплять файлы к сообщениям
    Вы можете скачивать файлы