Ссылка на приватное зеркало всего за 1$. Внимание количество ограничено!!!

iTunes

iTunes

iTunes

1

iTunes

iTunes

iTunes

iTunes

iTunes

30
pack

$ от Little Big

ВАЖНО

!!Акция!!

Alien_RageХит недели

RePack

Resident Evil 21

ИГРА 18+

pack

RePack

jed

!!Акция!!

Alien_Rage

RePack

fifa19

RePack

Assassins Creed: Odyssey

RePack

NEED FOR SPEED™ PAYBACK

4 сезон

9 сезон

Бесстыжие 9 сезон

Все сериалы

все сериалы на PB.wtf

RePack

FAR CRY 5
  

Свет в океане / The Light Between Oceans (Дерек Сиенфрэнс) [2016, драма, мелодрама, WEB-DL 1080p] Дубляж - [Лицензия / iTunes] pb.wtf

Свет в океане через торрент pb.wtf

Раздают: 1 [ 0 KB/s ]
Размер: 5.01 GB | Добавлен: 3 года 7 мес. назад | Торрент скачан:796 раз
Скачать  

08-12-2016 20:53 Свет в океане Скачать торрент  

Свет в океане / The Light Between Oceans

Год выпуска: 2016
Страна: Великобритания, Новая Зеландия, США
Жанр: драма, мелодрама

Продолжительность: 02:12:39
Перевод: Дубляж - [Лицензия / iTunes]
Субтитры: русские (Forced, iTunes), русские (iTunes), английские (Forced, iTunes)
Режиссер: Дерек Сиенфрэнс
В ролях:

Майкл Фассбендер (Tom Sherbourne), Алисия Викандер (Isabel Graysmark), Рэйчел Вайс (Hannah Roennfeldt), Флоренс Клери (Lucy-Grace), Джек Томпсон (Ralph Addicott), Томас Унгер (Bluey Smart), Джейн Менелос (Violet Graysmark), Гарри МакДональд (Bill Graysmark), Энтони Хэйес (Sergeant Vernon Knuckey), Бенедикт Харди (Constable Harry Garstone), Эмили Барклай (Gwen Potts), Брайан Браун (Septimus Potts)
Описание:
Вернувшийся с войны смотритель маяка Том встречает трепетную девушку по имени Изабель. Зародившаяся между ними любовь полностью преображает Изабель и возвращает опустошенному Тому веру в жизнь. Молодожены поселяются на уединенном острове, к берегу которого однажды пристает лодка с новорожденной девочкой. Супруги решают воспитать младенца как родную дочь, не представляя, насколько разрушительными будут последствия этого выбора.
Рейтинг:

MPAA: PG-13 - Детям до 13 лет просмотр не желателен
Качество: WEB-DL 1080p
Формат: MKV
Видео: AVC, 1920x792 (2.40:1), 4526 kbps, 23,976 fps, 0,124 bpp
Аудио №1: русский / AC3 / 5.1 / 48 kHz / 384 kbps / |Дубляж, iTunes|
Аудио №2: английский / AC3 / 5.1 / 48 kHz / 384 kbps /
Навигация по главам: есть
Релиз от:
General
Unique ID : 202760464680779336631287029001830061626 (0x988A3EBB60B795AB9D515DA632CCD63A)
Complete name : E:\The.Light.Between.Oceans.2016.1080p.WEB-DL.Rus.Eng.HDCLUB.mkv
Format : Matroska
Format version : Version 2
File size : 5.01 GiB
Duration : 2 h 12 min
Overall bit rate : 5 402 kb/s
Movie name : The Light Between Oceans (2016) - Release for HDCLUB
Encoded date : UTC 2016-12-08 19:18:28
Writing application : mkvmerge v3.4.0 ('Rapunzel') built on May 15 2010 09:38:20
Writing library : libebml v0.8.0 + libmatroska v0.9.0

Video
ID : 1
Format : AVC
Format/Info : Advanced Video Codec
Format profile : High@L4
Format settings, CABAC : Yes
Format settings, ReFrames : 5 frames
Codec ID : V_MPEG4/ISO/AVC
Duration : 2 h 12 min
Bit rate : 4 527 kb/s
Width : 1 920 pixels
Height : 792 pixels
Display aspect ratio : 2.40:1
Frame rate mode : Constant
Frame rate : 23.976 (24000/1001) FPS
Color space : YUV
Chroma subsampling : 4:2:0
Bit depth : 8 bits
Scan type : Progressive
Bits/(Pixel*Frame) : 0.124
Stream size : 4.19 GiB (84%)
Title : The Light Between Oceans (2016) - Release for HDCLUB
Language : English
Default : Yes
Forced : No
Color range : Limited
Color primaries : BT.709
Transfer characteristics : BT.709
Matrix coefficients : BT.709

Audio #1
ID : 2
Format : AC-3
Format/Info : Audio Coding 3
Mode extension : CM (complete main)
Format settings, Endianness : Big
Codec ID : A_AC3
Duration : 2 h 12 min
Bit rate mode : Constant
Bit rate : 384 kb/s
Channel(s) : 6 channels
Channel positions : Front: L C R, Side: L R, LFE
Sampling rate : 48.0 kHz
Frame rate : 31.250 FPS (1536 spf)
Compression mode : Lossy
Stream size : 364 MiB (7%)
Title : AC3 5.1 @ 384 kbps - DUB, iTunes
Language : Russian
Default : Yes
Forced : No

Audio #2
ID : 3
Format : AC-3
Format/Info : Audio Coding 3
Mode extension : CM (complete main)
Format settings, Endianness : Big
Codec ID : A_AC3
Duration : 2 h 12 min
Bit rate mode : Constant
Bit rate : 384 kb/s
Channel(s) : 6 channels
Channel positions : Front: L C R, Side: L R, LFE
Sampling rate : 48.0 kHz
Frame rate : 31.250 FPS (1536 spf)
Compression mode : Lossy
Stream size : 364 MiB (7%)
Title : AC3 5.1 @ 384 kbps
Language : English
Default : No
Forced : No

Text #1
ID : 4
Format : UTF-8
Codec ID : S_TEXT/UTF8
Codec ID/Info : UTF-8 Plain Text
Title : Forced, iTunes
Language : Russian
Default : Yes
Forced : No

Text #2
ID : 5
Format : UTF-8
Codec ID : S_TEXT/UTF8
Codec ID/Info : UTF-8 Plain Text
Title : iTunes
Language : Russian
Default : No
Forced : No

Text #3
ID : 6
Format : UTF-8
Codec ID : S_TEXT/UTF8
Codec ID/Info : UTF-8 Plain Text
Title : Forced, iTunes
Language : English
Default : No
Forced : No

Menu
00:00:00.000 : en:1
00:22:46.741 : en:2
00:43:32.278 : en:3
01:05:35.684 : en:4
01:27:28.121 : en:5
01:49:34.989 : en:6
02:06:56.989 : en:7
pb.wtf



Скачать Свет в океане через торрент http://i1.imageban.ru/out/2016/12/08/de058111aee19b397be76826032efb51.jpg Скачать фильм Свет в океане через торрент бесплантно в хорошем качестве Описание: Вернувшийся с войны смотритель маяка Том встречает трепетную девушку по имени Изабель. Зародившаяся между ними любовь полностью ... 9.9 10 24
Info! Золотая раздача, скачанное не засчитывается.
Торрент: Зарегистрирован [2016-12-08 20:53] · скачан: 796 раз
Статус: √ проверено
Размер: 5.01 GB
Как cкачать? Как скачать Свет в океане через торрент | qTorrent

% Раздел Тема Автор DL S | L
Фильмы 2016 [DVDrip, WEB-DLRip, HDrip] (DUB, MVO) [ 1.46 GB ] Свет в океане / The Light Between Oceans [2016 BDRip-AVC] DUB [] bober100 Скачать
1 | 0
Фильмы 2016 [DVDrip, WEB-DLRip, HDrip] (DUB, MVO) [ 2.18 GB ] Свет в океане / The Light Between Oceans [2016 BDRip] - [] Twi7ter Скачать
2 | 0
Фильмы 2016 [DVDrip, WEB-DLRip, HDrip] (DUB, MVO) [ 1.46 GB ] Свет в океане / The Light Between Oceans [2016 BDRip] - [] Twi7ter Скачать
1 | 0
Фильмы [HD 720p, 1080p] (Хороший звук DUB, MVO) [ 15.9 GB ] Свет в океане / The Light Between Oceans [2016 BDRip 1080p] - [] -Lexx- Скачать
1 | 0
Фильмы 2016 [DVDrip, WEB-DLRip, HDrip] (DUB, MVO) [ 2.19 GB ] Свет в океане / The Light Between Oceans [2016 BDRip] - [] -Lexx- Скачать
1 | 0
Фильмы (Blu-ray, BD-Remux, HDDVD) [ 27.98 GB ] Свет в океане / The Light Between Oceans [2016 Blu-Ray 1080p] / RUS Transfer / / -Lexx- Скачать
1 | 0
Фильмы 2016 [DVDrip, WEB-DLRip, HDrip] (DUB, MVO) [ 2.12 GB ] Свет в океане / The Light Between Oceans [2016 BDRip] - Twi7ter Скачать
1 | 0

28-11-2019 20:33  

Отключить всю рекламу на сайте

07-01-2017 11:57 Свет в океане Скачать торрент  

очень сильный фильм-но грустныйpb.wtf



05-02-2017 20:56 Свет в океане Скачать торрент  

Написано все в жанре и рейтинге, добавлю - хорошее душевное кино. Авторам спс.pb.wtf



    Дорогой пользователь! Огромная просьба, поблагодарите релизера, оцените раздачу и оставьте свои комментарий, если Вы скачали Свет в океане через торрент бесплатно! Внесите свою лепту в развитие PiratBit!
    Комментировать посты могут только пользователи прошедшие не сложную регистрацию
    Показать сообщения:    

    Свет в океане через торрент
    Скачать бесплатно Свет в океане
    Свет в океане скачать торрент
    Свет в океане смотреть онлайн
    Cкачать фильм Свет в океане бесплатно
    Свет в океане скачать торрент в хорошем качестве
    Свет в океане смотреть онлайн бесплатно в хорошем качестве


    Вы не можете начинать темы
    Вы не можете отвечать на сообщения
    Вы не можете редактировать свои сообщения
    Вы не можете удалять свои сообщения
    Вы не можете голосовать в опросах
    Вы не можете прикреплять файлы к сообщениям
    Вы можете скачивать файлы