Мега распродажа FORZA HORIZON 4 ULTIMATE+ВСЕ DLC+ОНЛАЙН всего за 499р. 349 руб. (супер цена). Внимание количество ограничено!!!

iTunes

1+1

iTunes

мы

iTunes

1

1 сезон

Чернобыль

1 сезон

Ральф против интернета

Лицензия

ПШазам

8 сезон

Игра престолов

Лицензия

30
pack

ВАЖНО

!!Акция!!

Alien_RageХит недели

RePack

Resident Evil 21

ИГРА 18+

pack

RePack

Metro:Exodus

!!Акция!!

Alien_Rage

RePack

fifa19

RePack

Assassins Creed: Odyssey

RePack

NEED FOR SPEED™ PAYBACK

3 сезон

9 сезон

Бесстыжие 9 сезон

Все сериалы

все сериалы на PB.wtf

RePack

FAR CRY 5
Ребята, катастрофически не хватает 2730р. для оплаты серверов за ИЮНЬ (всвязи с блокировками трафик упал в 3 раза), 1-2р., выручайте.
  

Создатели тени / Fat Man and Little Boy (Роланд Жоффе) [1989 г., драма, военный, биография, история, WEB-DLRip] 2 x MVO pb.wtf

Создатели тени через торрент pb.wtf

Размер: 2.19 GB | Добавлен: 2 года 7 мес. назад | Торрент скачан:7 раз
Скачать  

09-12-2016 06:00 Создатели тени Скачать торрент  

Создатели тени / Fat Man and Little Boy
Год выпуска: 1989
Страна: США
Жанр: драма, военный, биография, история
Продолжительность: 02:06:30
Перевод: Профессиональный (многоголосый)

Режиссер: Роланд Жоффе

rating

В ролях: Пол Ньюман, Дуайт Шульц, Бонни Беделиа, Лора Дерн, Рон Фрэзиер, Джон Кьюсак, Джон К. МакГинли, Наташа Ричардсон, Рон Вотер, Майкл Брокмэн, Дел Клоуз, Джон Консидайн, Аллен Корданер, Джо Д'Анджерио, Джеймс Экхауз, Тодд Филд, Мэри Пэт Глисон, Кларк Грегг, Джералд Хайкен, Артур Холден, Эд Лаутер, Мэдисон Мэйсон, Кшиштоф Печински

Описание: Фильм знаменитого режиссёра Роланда Джоффе расскажет Вам об истории создания самого страшного оружия на Земле. Ньюман играет сурового генерала Лесли Гроувза, который руководит совершенно секретным проектом «Манхэттен».

Качество: WEB-DLRip
Формат: AVI
Видео кодек: XviD
Аудио кодек: AC3
Видео: XviD, 1873 Кбит/с, 720x304, 23.976 кадр/с
Аудио#1: АС3, 2 ch, 192 Кбит/с, 48 kHz | Профессиональный многоголосый (Paramount Channel)
Аудио#2: АС3, 2 ch, 192 Кбит/с, 48 kHz | Профессиональный многоголосый (Премьер Видео Фильм)
Аудио#3: АС3, 2 ch, 192 Кбит/с, 48 kHz | Aнглийский
Релиз от: Koenig
Общее
Полное имя : Fat.Man.and.Little.Boy.1989.WEB-DLRip.avi
Формат : AVI
Формат/Информация : Audio Video Interleave
Профиль формата : OpenDML
Размер файла : 2,19 Гбайт
Продолжительность : 2 ч. 6 м.
Общий поток : 2473 Кбит/сек
Программа кодирования : VirtualDubMod 1.5.10.2 (build 2540/release)
Библиотека кодирования : VirtualDubMod build 2540/release

Видео
Идентификатор : 0
Формат : MPEG-4 Visual
Профиль формата : Advanced Simple@L5
Параметр BVOP формата : 1
Параметр QPel формата : Нет
Параметр GMC формата : Без точки перехода
Параметр матрицы формата : Выборочная
Идентификатор кодека : XVID
Идентификатор кодека/Подсказка : XviD
Продолжительность : 2 ч. 6 м.
Битрейт : 1873 Кбит/сек
Ширина : 720 пикселей
Высота : 304 пикселя
Соотношение сторон : 2,35:1
Частота кадров : 23,976 (24000/1001) кадра/сек
Частота кадров в оригинале : 23,976 (23976/1000) кадра/сек
Цветовое пространство : YUV
Субдискретизация насыщенности : 4:2:0
Битовая глубина : 8 бит
Тип развёртки : Прогрессивная
Метод сжатия : С потерями
Бит/(Пиксели*Кадры) : 0.357
Размер потока : 1,65 Гбайт (76%)
Библиотека кодирования : XviD 73

Аудио #1
Идентификатор : 1
Формат : AC-3
Формат/Информация : Audio Coding 3
Расширение режима : CM (complete main)
Параметр Endianness формата : Big
Идентификатор кодека : 2000
Продолжительность : 2 ч. 6 м.
Вид битрейта : Постоянный
Битрейт : 192 Кбит/сек
Каналы : 2 канала
Расположение каналов : Front: L R
Частота : 48,0 КГц
Частота кадров : 31,250 кадров/сек (1536 spf)
Битовая глубина : 16 бит
Метод сжатия : С потерями
Размер потока : 174 Мбайт (8%)
Выравнивание : Разделение по промежуткам
Продолжительность промежутка : 42 мс. (1,00 видеокадр)
Время предзагрузки промежутка : 500 мс.

Аудио #2
Идентификатор : 2
Формат : AC-3
Формат/Информация : Audio Coding 3
Расширение режима : CM (complete main)
Параметр Endianness формата : Big
Идентификатор кодека : 2000
Продолжительность : 2 ч. 6 м.
Вид битрейта : Постоянный
Битрейт : 192 Кбит/сек
Каналы : 2 канала
Расположение каналов : Front: L R
Частота : 48,0 КГц
Частота кадров : 31,250 кадров/сек (1536 spf)
Битовая глубина : 16 бит
Метод сжатия : С потерями
Размер потока : 174 Мбайт (8%)
Выравнивание : Разделение по промежуткам
Продолжительность промежутка : 42 мс. (1,00 видеокадр)
Время предзагрузки промежутка : 500 мс.

Аудио #3
Идентификатор : 3
Формат : AC-3
Формат/Информация : Audio Coding 3
Расширение режима : CM (complete main)
Параметр Endianness формата : Big
Идентификатор кодека : 2000
Продолжительность : 2 ч. 6 м.
Вид битрейта : Постоянный
Битрейт : 192 Кбит/сек
Каналы : 2 канала
Расположение каналов : Front: L R
Частота : 48,0 КГц
Частота кадров : 31,250 кадров/сек (1536 spf)
Битовая глубина : 16 бит
Метод сжатия : С потерями
Размер потока : 174 Мбайт (8%)
Выравнивание : Разделение по промежуткам
Продолжительность промежутка : 42 мс. (1,00 видеокадр)
Время предзагрузки промежутка : 500 мс.

pb.wtf



Скачать Создатели тени через торрент http://i64.fastpic.ru/big/2014/0825/f4/6369af19c65c2755eeddc921dcd65af4.jpg Скачать фильм Создатели тени через торрент бесплантно в хорошем качестве Описание: Фильм знаменитого режиссёра Роланда Джоффе расскажет Вам об истории создания самого страшного оружия на Земле. Ньюман играет ... 5.5 10 2
Info! Золотая раздача, скачанное не засчитывается.
Торрент: Зарегистрирован [2016-12-09 06:00] · скачан: 7 раз
Статус: √ проверено
Размер: 2.19 GB
Как cкачать? Как скачать Создатели тени через торрент | qTorrent


>> Регистрируемся здесь <<






Отзывы и комментарии о схеме читаем и пишем здесь: ---> Отзывы и комментарии о схеме

Новые благодарочки в телеграм довольных пользователей:
скриншот   скриншот   скриншот   скриншот   скриншот
    Дорогой пользователь! Огромная просьба, поблагодарите релизера, оцените раздачу и оставьте свои комментарий, если Вы скачали Создатели тени через торрент бесплатно! Внесите свою лепту в развитие PiratBit!
    Комментировать посты могут только пользователи прошедшие не сложную регистрацию
    Показать сообщения:    

    Создатели тени через торрент
    Скачать бесплатно Создатели тени
    Создатели тени скачать торрент
    Создатели тени смотреть онлайн
    Cкачать фильм Создатели тени бесплатно
    Создатели тени скачать торрент в хорошем качестве
    Создатели тени смотреть онлайн бесплатно в хорошем качестве


    Вы не можете начинать темы
    Вы не можете отвечать на сообщения
    Вы не можете редактировать свои сообщения
    Вы не можете удалять свои сообщения
    Вы не можете голосовать в опросах
    Вы не можете прикреплять файлы к сообщениям
    Вы можете скачивать файлы