MEGA SALE -50% FORZA HORIZON 4 ULTIMATE+ВСЕ DLC+ОНЛАЙН всего за 599р. 299 руб. (супер цена). Внимание количество ограничено!!!

iTunes

1+1

iTunes

мы

iTunes

1

iTunes

Чернобыль

iTunes

Ральф против интернета

Лицензия

ПШазам

Лицензия

Игра престолов

Лицензия

30
pack

ВАЖНО

!!Акция!!

Alien_RageХит недели

RePack

Resident Evil 21

ИГРА 18+

pack

RePack

Metro:Exodus

!!Акция!!

Alien_Rage

RePack

fifa19

RePack

Assassins Creed: Odyssey

RePack

NEED FOR SPEED™ PAYBACK

3 сезон

9 сезон

Бесстыжие 9 сезон

Все сериалы

все сериалы на PB.wtf

RePack

FAR CRY 5
Ребята, катастрофически не хватает 7730р. для оплаты серверов за АВГУСТ (всвязи с блокировками трафик упал в 3 раза), 1-2р., выручайте.
  

Карательница / L'exécutrice (Мишель Капюто / Michel Caputo) [1986 г., Боевик, триллер, DVDRip by _Один_777] VO (Horror Maker) pb.wtf

Карательница через торрент pb.wtf

Размер: 1.46 GB | Добавлен: 2 года 9 мес. назад | Торрент скачан:5 раз
Скачать  

09-12-2016 18:09 Карательница Скачать торрент  

Карательница / L'exécutrice

Год выпуска: 1986
Страна: Франция / Fil à Film, Tiphany Productions, Zoom 24
Жанр: Боевик, триллер
Продолжительность: 01:26:46
Перевод: Любительский (одноголосый закадровый) Horror Maker
Cубтитры: нет

Режиссер: Мишель Капюто / Michel Caputo

В ролях: Брижит Лаэ, Мишель Модо, Пьер Одре, Мишель Годен, Бетти Шанпеваль, Доминик Эрланже, Жан-Юг Лим, Доминик Лемонье, Тханг-Лонг, Бернар Юг...

Описание: Мартина Совиньяк — дама-полицейская, которая занимается преступлениями на ниве нравственности, а именно - прижимает порнодельцов. Однажды ее пути пересекаются с бандой некой мадам Вендерс, организующей похищения молоденьких девушек и их продажу в секс-рабство. Поскольку по Вендерс много лет сохнет комиссар полиции - непосредственный начальник Мартины, преступнице удается улизнуть от правосудия и в отместку похитить младшую сестру строптивой героини Лаэ.


Сэмпл: http://sendfile.su/1289121


Качество: DVDRip
Формат: AVI
Видео кодек: XviD
Аудио кодек: AC3
Видео: 720x400 (1.80:1), 25 fps, XviD build 73 ~2207 kbps avg, 0.31 bit/pixel
Аудио: 48 kHz, AC3 Dolby Digital, 2/0 (L,R) ch, ~192 kbps
Общее
Полное имя : F:\Karatel'nica.1986.DVDRip.1400.[Один 777].avi
Формат : AVI
Формат/Информация : Audio Video Interleave
Размер файла : 1,46 Гбайт
Продолжительность : 1 ч. 26 м.
Общий поток : 2410 Кбит/сек
Программа кодирования : VirtualDubMod 1.5.10.3 | www.virtualdub-fr.org || (build 2550/release)
Библиотека кодирования : VirtualDubMod build 2550/release

Видео
Идентификатор : 0
Формат : MPEG-4 Visual
Профиль формата : Advanced Simple@L5
Параметр BVOP формата : 1
Параметр QPel формата : Нет
Параметр GMC формата : Без точки перехода
Параметр матрицы формата : Default (H.263)
Идентификатор кодека : XVID
Идентификатор кодека/Подсказка : XviD
Продолжительность : 1 ч. 26 м.
Битрейт : 2208 Кбит/сек
Ширина : 720 пикселей
Высота : 400 пикселей
Соотношение сторон : 16:9
Частота кадров : 25,000 кадров/сек
Цветовое пространство : YUV
Субдискретизация насыщенности : 4:2:0
Битовая глубина : 8 бит
Тип развёртки : Прогрессивная
Метод сжатия : С потерями
Бит/(Пиксели*Кадры) : 0.307
Размер потока : 1,34 Гбайт (92%)
Библиотека кодирования : XviD 73

Аудио
Идентификатор : 1
Формат : AC-3
Формат/Информация : Audio Coding 3
Расширение режима : CM (complete main)
Параметр Endianness формата : Big
Идентификатор кодека : 2000
Продолжительность : 1 ч. 26 м.
Вид битрейта : Постоянный
Битрейт : 192 Кбит/сек
Каналы : 2 канала
Расположение каналов : Front: L R
Частота : 48,0 КГц
Частота кадров : 31,250 кадров/сек (1536 spf)
Метод сжатия : С потерями
Размер потока : 119 Мбайт (8%)
Выравнивание : Разделение по промежуткам
Продолжительность промежутка : 40 мс. (1,00 видеокадр)
Время предзагрузки промежутка : 500 мс.
pb.wtf



Скачать Карательница через торрент http://i3.imageban.ru/out/2016/12/09/51a3f1a8ad5637669b1da08298c9732f.jpg Скачать фильм Карательница через торрент бесплантно в хорошем качестве Описание: Мартина Совиньяк — дама-полицейская, которая занимается преступлениями на ниве нравственности, а именно - прижимает порнодельцов. ... 10 10 5
Info! Золотая раздача, скачанное не засчитывается.
Торрент: Зарегистрирован [2016-12-09 18:09] · скачан: 5 раз
Статус: √ проверено
Размер: 1.46 GB
Как cкачать? Как скачать Карательница через торрент | qTorrent


>> Регистрируемся здесь <<






Отзывы и комментарии о схеме читаем и пишем здесь: ---> Отзывы и комментарии о схеме

Новые благодарочки в телеграм довольных пользователей:
скриншот   скриншот   скриншот   скриншот   скриншот
    Дорогой пользователь! Огромная просьба, поблагодарите релизера, оцените раздачу и оставьте свои комментарий, если Вы скачали Карательница через торрент бесплатно! Внесите свою лепту в развитие PiratBit!
    Комментировать посты могут только пользователи прошедшие не сложную регистрацию
    Показать сообщения:    

    Карательница через торрент
    Скачать бесплатно Карательница
    Карательница скачать торрент
    Карательница смотреть онлайн
    Cкачать фильм Карательница бесплатно
    Карательница скачать торрент в хорошем качестве
    Карательница смотреть онлайн бесплатно в хорошем качестве


    Вы не можете начинать темы
    Вы не можете отвечать на сообщения
    Вы не можете редактировать свои сообщения
    Вы не можете удалять свои сообщения
    Вы не можете голосовать в опросах
    Вы не можете прикреплять файлы к сообщениям
    Вы можете скачивать файлы