Ссылка на приватное зеркало нашего сайта всего за 1$. Внимание количество ограничено!!!

2 сезон

iTunes

1 сезон

1

iTunes

iTunes

iTunes

1 сезон

RePack

30

ИГРА 18+

pack

ВАЖНО

!!Акция!!

Alien_RageХит недели

RePack

MK11
pack

Забери бонус

RePack

jed

!!Акция!!

Alien_Rage

RePack

fifa19

RePack

Assassins Creed: Odyssey

RePack

NEED FOR SPEED™ PAYBACK

4 сезон

9 сезон

Бесстыжие 9 сезон

Все сериалы

все сериалы на PB.wtf

RePack

FAR CRY 5
  

Сёстры / Sisters (Брайан Де Пальма) [1973, триллер, ужасы, BDRip 1080p by msltel] MVO pb.wtf

Сёстры через торрент pb.wtf

Размер: 13.13 GB | Добавлен: 3 года 10 мес. назад | Торрент скачан:6 раз
Скачать  

10-12-2016 08:35 Сёстры Скачать торрент  

Название: Сёстры
Оригинальное название: Sisters
Год выпуска: 1973
Страна: США
Жанр: триллер, ужасы
Продолжительность: 01:32:26
Перевод: профессиональный многоголосый

Режиссёр: Брайан Де Пальма

В ролях: Марго Киддер, Дженнифер Солт, Чарльз Дёрнинг, Уильям Финли, Лайл Уилсон, Барнард Хьюз, Мэри Девенпорт, Дольф Свит, Кэти Берри, Олимпия Дукакис

Описание: Сюжет завязан вокруг сестёр-сиамских близнецов, которых разделили уже в зрелом возрасте. Они очень-очень разные, эти сёстры...



Качество: BDRip 1080p Сравнение с исходником
Формат: MKV
Видео: MPEG-4 AVC,19.8 MKбит/с, 1920x1080, 23,976 кадра/с
Аудио 1: русский, AC3, 384 kbps, 6 ch, 48 kHz [профессиональный многоголосый]
Аудио 2: английский, AC3, 192 kbps, 1 ch, 48 kHz [оригинал]
Субтитры 1: русские (Lexandros)
Субтитры 2: английские (для слабослышащих)
Имеются неименованные главы/чаптеры.
Общее
Уникальный идентификатор : 237038341506852157993713898354201110004 (0xB253EC8A736FBBAC8D12B58CC6E8A5F4)
Полное имя : D:\Video\Сёстры.1973.BDRip.1080p by msltel.mkv
Формат : Matroska
Версия формата : Version 4 / Version 2
Размер файла : 13,1 Гбайт
Продолжительность : 1 ч. 32 м.
Общий поток : 20,3 Мбит/сек
Название фильма : Rip by msltel
Дата кодирования : UTC 2016-12-10 02:37:48
Программа кодирования : mkvmerge v8.2.0 ('World of Adventure') 64bit
Библиотека кодирования : libebml v1.3.1 + libmatroska v1.4.2

Видео
Идентификатор : 1
Формат : AVC
Формат/Информация : Advanced Video Codec
Профиль формата : High@L4.1
Параметр CABAC формата : Да
Параметр ReFrames формата : 4 кадра
Идентификатор кодека : V_MPEG4/ISO/AVC
Продолжительность : 1 ч. 32 м.
Битрейт : 19,8 Мбит/сек
Ширина : 1920 пикселей
Высота : 1080 пикселей
Соотношение сторон : 16:9
Режим частоты кадров : Постоянный
Частота кадров : 23,976 (24000/1001) кадра/сек
Цветовое пространство : YUV
Субдискретизация насыщенности : 4:2:0
Битовая глубина : 8 бит
Тип развёртки : Прогрессивная
Бит/(Пиксели*Кадры) : 0.398
Размер потока : 12,8 Гбайт (97%)
Библиотека кодирования : x264 core 146 r2538 121396c
Настройки программы : cabac=1 / ref=4 / deblock=1:-3:-3 / analyse=0x3:0x113 / me=umh / subme=9 / psy=1 / psy_rd=1.00:0.15 / mixed_ref=1 / me_range=32 / chroma_me=1 / trellis=1 / 8x8dct=1 / cqm=0 / deadzone=21,11 / fast_pskip=0 / chroma_qp_offset=-3 / threads=6 / lookahead_threads=1 / sliced_threads=0 / nr=0 / decimate=1 / interlaced=0 / bluray_compat=0 / constrained_intra=0 / bframes=16 / b_pyramid=2 / b_adapt=2 / b_bias=0 / direct=1 / weightb=0 / open_gop=0 / weightp=2 / keyint=230 / keyint_min=23 / scenecut=40 / intra_refresh=0 / rc_lookahead=40 / rc=crf / mbtree=0 / crf=21.6 / qcomp=0.60 / qpmin=0 / qpmax=69 / qpstep=4 / vbv_maxrate=50000 / vbv_bufsize=62500 / crf_max=0.0 / nal_hrd=none / filler=0 / ip_ratio=1.40 / pb_ratio=1.30 / aq=1:1.00
Язык : English
Default : Да
Forced : Нет

Аудио #1
Идентификатор : 2
Формат : AC-3
Формат/Информация : Audio Coding 3
Расширение режима : CM (complete main)
Параметр Endianness формата : Big
Идентификатор кодека : A_AC3
Продолжительность : 1 ч. 32 м.
Вид битрейта : Постоянный
Битрейт : 384 Кбит/сек
Каналы : 6 каналов
Расположение каналов : Front: L C R, Side: L R, LFE
Частота : 48,0 КГц
Частота кадров : 31,250 кадров/сек (1536 spf)
Метод сжатия : С потерями
Размер потока : 254 Мбайт (2%)
Заголовок : MVO
Язык : Russian
Default : Да
Forced : Нет

Аудио #2
Идентификатор : 3
Формат : AC-3
Формат/Информация : Audio Coding 3
Расширение режима : CM (complete main)
Параметр Endianness формата : Big
Идентификатор кодека : A_AC3
Продолжительность : 1 ч. 32 м.
Вид битрейта : Постоянный
Битрейт : 192 Кбит/сек
Каналы : 1 канал
Расположение каналов : Front: C
Частота : 48,0 КГц
Частота кадров : 31,250 кадров/сек (1536 spf)
Метод сжатия : С потерями
Размер потока : 127 Мбайт (1%)
Заголовок : original
Язык : English
Default : Нет
Forced : Нет

Текст #1
Идентификатор : 4
Формат : UTF-8
Идентификатор кодека : S_TEXT/UTF8
Идентификатор кодека/Информация : UTF-8 Plain Text
Продолжительность : 1 ч. 30 м.
Битрейт : 81 бит/сек
Count of elements : 898
Размер потока : 54,1 Кбайт (0%)
Заголовок : русские (Lexandros)
Язык : Russian
Default : Нет
Forced : Нет

Текст #2
Идентификатор : 5
Формат : UTF-8
Идентификатор кодека : S_TEXT/UTF8
Идентификатор кодека/Информация : UTF-8 Plain Text
Продолжительность : 1 ч. 29 м.
Битрейт : 59 бит/сек
Count of elements : 985
Размер потока : 38,6 Кбайт (0%)
Заголовок : английские (для слабослышащих)
Язык : English
Default : Нет
Forced : Нет

Меню
00:00:00.000 : :Chapter 01
00:06:06.324 : :Chapter 02
00:15:56.997 : :Chapter 03
00:23:29.616 : :Chapter 04
00:31:29.554 : :Chapter 05
00:41:37.870 : :Chapter 06
00:45:56.628 : :Chapter 07
00:52:39.281 : :Chapter 08
00:59:58.469 : :Chapter 09
01:08:48.833 : :Chapter 10
01:15:59.763 : :Chapter 11
01:27:35.375 : :Chapter 12
01:32:20.493 : :Chapter 13
pb.wtf



Скачать Сёстры через торрент http://s019.radikal.ru/i635/1612/e0/5e9278ed7c8e.jpg Скачать фильм Сёстры через торрент бесплантно в хорошем качестве Описание: Сюжет завязан вокруг сестёр-сиамских близнецов, которых разделили уже в зрелом возрасте. Они очень-очень разные, эти сёстры... ... 10 10 1
Info! Золотая раздача, скачанное не засчитывается.
Торрент: Зарегистрирован [2016-12-10 08:35] · скачан: 6 раз
Статус: √ проверено
Размер: 13.13 GB
Как cкачать? Как скачать Сёстры через торрент | qTorrent

% Раздел Тема Автор DL S | L
T Фильмы (мультфильмы) cо спонсором показа (Новинки AVI/MKV) [ 1.37 GB ] Сестры-терминаторы: Генезис / Terminator sisters: Genesis / Shuang Zi Qi Yuan [2017 WEB-DLRip] MVO [КОЛОБОК] bober100 Скачать
1 | 0
Фильмы (WEB-DL 720p, 1080p) [ 3.25 GB ] Сестры Бэнгер / The Banger Sisters [2002 WEB-DLRip 720p] 2xMVO + DVO + VO - KORSAR kisa1980 Скачать
1 | 0
T Фильмы (мультфильмы) cо спонсором показа (Новинки AVI/MKV) [ 2.97 GB ] Сестры-терминаторы: Генезис / Terminator sisters: Genesis / Shuang Zi Qi Yuan [2017 WEB-DL 720p] MVO [КОЛОБОК] bober100 Скачать
1 | 0
T Фильмы (мультфильмы) cо спонсором показа (Новинки AVI/MKV) [ 3.51 GB ] Сёстры по степу / Step Sisters [2018 WEB-DL 720p] MVO ["Синема УС"] bober100 Скачать
1 | 0
T Фильмы (мультфильмы) cо спонсором показа (Новинки AVI/MKV) [ 1.46 GB ] Сёстры по степу / Step Sisters [2018 WEB-DLRip] MVO ["Синема УС"] bober100 Скачать
1 | 0
Фильмы [HD 720p, 1080p] (Хороший звук DUB, MVO) [ 4.66 GB ] Сёстры / Sisters [1973 BDRip 720p by msltel] MVO msltel Скачать
1 | 0
Фильмы 2011 [ 1.37 GB ] Сестры и братья / Sisters & Brothers [2011 DVDRip MVO] кэп Скачать
1 | 0

28-11-2019 20:33  

Отключить всю рекламу на сайте

    Дорогой пользователь! Огромная просьба, поблагодарите релизера, оцените раздачу и оставьте свои комментарий, если Вы скачали Сёстры через торрент бесплатно! Внесите свою лепту в развитие PiratBit!
    Комментировать посты могут только пользователи прошедшие не сложную регистрацию
    Показать сообщения:    

    Сёстры через торрент
    Скачать бесплатно Сёстры
    Сёстры скачать торрент
    Сёстры смотреть онлайн
    Cкачать фильм Сёстры бесплатно
    Сёстры скачать торрент в хорошем качестве
    Сёстры смотреть онлайн бесплатно в хорошем качестве


    Вы не можете начинать темы
    Вы не можете отвечать на сообщения
    Вы не можете редактировать свои сообщения
    Вы не можете удалять свои сообщения
    Вы не можете голосовать в опросах
    Вы не можете прикреплять файлы к сообщениям
    Вы можете скачивать файлы