Ссылка на приватное зеркало нашего сайта всего за 1$. Внимание количество ограничено!!!

2 сезон

iTunes

1 сезон

1

iTunes

iTunes

iTunes

1 сезон

RePack

30

ИГРА 18+

pack

ВАЖНО

!!Акция!!

Alien_RageХит недели

RePack

MK11
pack

Забери бонус

RePack

jed

!!Акция!!

Alien_Rage

RePack

fifa19

RePack

Assassins Creed: Odyssey

RePack

NEED FOR SPEED™ PAYBACK

4 сезон

9 сезон

Бесстыжие 9 сезон

Все сериалы

все сериалы на PB.wtf

RePack

FAR CRY 5
  

Команда из штата Индиана / Hoosiers (Дэвид Анспаух) [1986, спорт, драма, BDRip 720p by msltel] MVO pb.wtf

Команда из штата Индиана через торрент pb.wtf

Размер: 5.1 GB | Добавлен: 3 года 10 мес. назад | Торрент скачан:23 раза
Скачать  

10-12-2016 09:16 Команда из штата Индиана Скачать торрент  

Название: Команда из штата Индиана
Оригинальное название: Hoosiers
Год выпуска: 1986
Страна: США
Жанр: спорт, драма
Продолжительность: 01:55:03
Перевод: профессиональный многоголосый

Режиссёр: Дэвид Анспаух

В ролях: Джин Хэкмен, Барбара Хёрши, Дэннис Хоппер, Снеб Вули, Челси Росс, Роберт Суон, Уил Девитт

Описание: В этом фильме, основанном на подлинной истории баскетбольной команды провинциальной средней школы штата Индиана, которая в 1954 году пробилась в финал первенства штата, Хэкмен играет тренера с независимым складом ума, который вместе с местным алкоголиком ведёт команду к победе...



Качество: BDRip 720p Сравнение с исходником
Формат: MKV
Видео: MPEG-4 AVC, 5701 Kбит/с, 1280x694, 23,976 кадра/с
Аудио 1: русский, AC3, 192 kbps, 2 ch, 48 kHz [профессиональный многоголосый]
Аудио 2: английский, AC3, 448 kbps, 6 ch, 48 kHz [оригинал]
Субтитры: английские (для слабослышащих)
Имеются неименованные главы/чаптеры.
Общее
Уникальный идентификатор : 188532145509742724342058700523125436665 (0x8DD5F86F856D886289EDC77BFF1D70F9)
Полное имя : D:\Video\Команда из штата Индиана.1986.BDRip.720p by msltel.mkv
Формат : Matroska
Версия формата : Version 4 / Version 2
Размер файла : 5,10 Гбайт
Продолжительность : 1 ч. 55 м.
Общий поток : 6343 Кбит/сек
Название фильма : Rip by msltel
Дата кодирования : UTC 2016-12-09 12:57:41
Программа кодирования : mkvmerge v8.2.0 ('World of Adventure') 64bit
Библиотека кодирования : libebml v1.3.1 + libmatroska v1.4.2

Видео
Идентификатор : 1
Формат : AVC
Формат/Информация : Advanced Video Codec
Профиль формата : High@L4.1
Параметр CABAC формата : Да
Параметр ReFrames формата : 9 кадров
Идентификатор кодека : V_MPEG4/ISO/AVC
Продолжительность : 1 ч. 55 м.
Битрейт : 5701 Кбит/сек
Ширина : 1280 пикселей
Высота : 694 пикселя
Соотношение сторон : 1,85:1
Режим частоты кадров : Постоянный
Частота кадров : 23,976 (24000/1001) кадра/сек
Цветовое пространство : YUV
Субдискретизация насыщенности : 4:2:0
Битовая глубина : 8 бит
Тип развёртки : Прогрессивная
Бит/(Пиксели*Кадры) : 0.268
Размер потока : 4,58 Гбайт (90%)
Библиотека кодирования : x264 core 146 r2538 121396c
Настройки программы : cabac=1 / ref=9 / deblock=1:-3:-3 / analyse=0x3:0x113 / me=umh / subme=9 / psy=1 / psy_rd=1.00:0.15 / mixed_ref=1 / me_range=32 / chroma_me=1 / trellis=1 / 8x8dct=1 / cqm=0 / deadzone=21,11 / fast_pskip=0 / chroma_qp_offset=-3 / threads=6 / lookahead_threads=1 / sliced_threads=0 / nr=0 / decimate=1 / interlaced=0 / bluray_compat=0 / constrained_intra=0 / bframes=12 / b_pyramid=2 / b_adapt=2 / b_bias=0 / direct=1 / weightb=0 / open_gop=0 / weightp=2 / keyint=230 / keyint_min=23 / scenecut=40 / intra_refresh=0 / rc_lookahead=40 / rc=crf / mbtree=0 / crf=20.7 / qcomp=0.60 / qpmin=0 / qpmax=69 / qpstep=4 / vbv_maxrate=50000 / vbv_bufsize=62500 / crf_max=0.0 / nal_hrd=none / filler=0 / ip_ratio=1.40 / pb_ratio=1.30 / aq=1:1.00
Язык : English
Default : Да
Forced : Нет

Аудио #1
Идентификатор : 2
Формат : AC-3
Формат/Информация : Audio Coding 3
Расширение режима : CM (complete main)
Параметр Endianness формата : Big
Идентификатор кодека : A_AC3
Продолжительность : 1 ч. 54 м.
Вид битрейта : Постоянный
Битрейт : 192 Кбит/сек
Каналы : 2 канала
Расположение каналов : Front: L R
Частота : 48,0 КГц
Частота кадров : 31,250 кадров/сек (1536 spf)
Метод сжатия : С потерями
Размер потока : 158 Мбайт (3%)
Заголовок : MVO
Язык : Russian
Default : Да
Forced : Нет

Аудио #2
Идентификатор : 3
Формат : AC-3
Формат/Информация : Audio Coding 3
Расширение режима : CM (complete main)
Параметр Endianness формата : Big
Идентификатор кодека : A_AC3
Продолжительность : 1 ч. 55 м.
Вид битрейта : Постоянный
Битрейт : 448 Кбит/сек
Каналы : 6 каналов
Расположение каналов : Front: L C R, Side: L R, LFE
Частота : 48,0 КГц
Частота кадров : 31,250 кадров/сек (1536 spf)
Метод сжатия : С потерями
Размер потока : 369 Мбайт (7%)
Заголовок : original
Язык : English
Default : Нет
Forced : Нет

Текст
Идентификатор : 4
Формат : UTF-8
Идентификатор кодека : S_TEXT/UTF8
Идентификатор кодека/Информация : UTF-8 Plain Text
Продолжительность : 1 ч. 50 м.
Битрейт : 57 бит/сек
Count of elements : 1361
Размер потока : 46,7 Кбайт (0%)
Заголовок : английские (для слабослышащих)
Язык : English
Default : Нет
Forced : Нет

Меню
00:00:00.000 : en:Chapter 01
00:04:03.409 : en:Chapter 02
00:06:42.693 : en:Chapter 03
00:08:55.618 : en:Chapter 04
00:11:52.169 : en:Chapter 05
00:19:02.683 : en:Chapter 06
00:20:19.009 : en:Chapter 07
00:21:58.358 : en:Chapter 08
00:24:13.785 : en:Chapter 09
00:26:55.822 : en:Chapter 10
00:35:19.909 : en:Chapter 11
00:37:05.765 : en:Chapter 12
00:40:35.558 : en:Chapter 13
00:42:23.207 : en:Chapter 14
00:46:43.801 : en:Chapter 15
00:51:14.780 : en:Chapter 16
00:55:06.303 : en:Chapter 17
00:56:53.201 : en:Chapter 18
01:01:17.465 : en:Chapter 19
01:03:54.330 : en:Chapter 20
01:08:21.138 : en:Chapter 21
01:12:58.957 : en:Chapter 22
01:15:31.401 : en:Chapter 23
01:22:05.754 : en:Chapter 24
01:27:00.840 : en:Chapter 25
01:29:52.929 : en:Chapter 26
01:30:53.197 : en:Chapter 27
01:33:19.093 : en:Chapter 28
01:35:57.251 : en:Chapter 29
01:39:43.102 : en:Chapter 30
01:49:47.581 : en:Chapter 31
01:50:58.652 : en:Chapter 32
pb.wtf



Скачать Команда из штата Индиана через торрент http://s020.radikal.ru/i723/1612/07/9bfe7fff1028.jpg Скачать фильм Команда из штата Индиана через торрент бесплантно в хорошем качестве Описание: В этом фильме, основанном на подлинной истории баскетбольной команды провинциальной средней школы штата Индиана, которая в 1954 ... 9.3 10 3
Торрент: Зарегистрирован [2016-12-10 09:16] · скачан: 23 раз
Статус: √ проверено
Размер: 5.1 GB
Как cкачать? Как скачать Команда из штата Индиана через торрент | qTorrent

% Раздел Тема Автор DL S | L
Фильмы [HD 720p, 1080p] (Хороший звук DUB, MVO) [ 13.73 GB ] Команда из штата Индиана / Hoosiers [1986 BDRip 1080p by msltel] MVO msltel Скачать
1 | 0

28-11-2019 20:33  

Отключить всю рекламу на сайте

    Дорогой пользователь! Огромная просьба, поблагодарите релизера, оцените раздачу и оставьте свои комментарий, если Вы скачали Команда из штата Индиана через торрент бесплатно! Внесите свою лепту в развитие PiratBit!
    Комментировать посты могут только пользователи прошедшие не сложную регистрацию
    Показать сообщения:    

    Команда из штата Индиана через торрент
    Скачать бесплатно Команда из штата Индиана
    Команда из штата Индиана скачать торрент
    Команда из штата Индиана смотреть онлайн
    Cкачать фильм Команда из штата Индиана бесплатно
    Команда из штата Индиана скачать торрент в хорошем качестве
    Команда из штата Индиана смотреть онлайн бесплатно в хорошем качестве


    Вы не можете начинать темы
    Вы не можете отвечать на сообщения
    Вы не можете редактировать свои сообщения
    Вы не можете удалять свои сообщения
    Вы не можете голосовать в опросах
    Вы не можете прикреплять файлы к сообщениям
    Вы можете скачивать файлы