новый адрес пиратбит piratbit
Мега распродажа FORZA HORIZON 4 ULTIMATE+ВСЕ DLC+ОНЛАЙН всего за 499р. 349 руб. (супер цена). Внимание количество ограничено!!!

iTunes

1+1

iTunes

мы

iTunes

1

iTunes

Чернобыль

iTunes

Ральф против интернета

Лицензия

ПШазам

Лицензия

Игра престолов

Лицензия

30
pack

ВАЖНО

!!Акция!!

Alien_RageХит недели

RePack

Resident Evil 21

ИГРА 18+

pack

RePack

Metro:Exodus

!!Акция!!

Alien_Rage

RePack

fifa19

RePack

Assassins Creed: Odyssey

RePack

NEED FOR SPEED™ PAYBACK

3 сезон

9 сезон

Бесстыжие 9 сезон

Все сериалы

все сериалы на PB.wtf

RePack

FAR CRY 5
Ребята, катастрофически не хватает 1900р. для оплаты серверов за Октябрь (всвязи с блокировками трафик упал в 3 раза), 1-2р., выручайте.
  

Печать зла / Touch of Evil (Орсон Уэллс) [1958 г., фильм-нуар, триллер, драма, криминал, BDRip] MVO pb.wtf

Печать зла через торрент pb.wtf

Размер: 1.45 GB | Добавлен: 2 года 11 мес. назад | Торрент скачан:12 раз
Скачать  

10-12-2016 12:05 Печать зла Скачать торрент  

Печать зла / Touch of Evil
Год выпуска: 1958
Страна: США
Жанр: фильм-нуар, триллер, драма, криминал
Продолжительность: 01:50:46
Перевод: Профессиональный многоголосый (Film Prestige)
Тип релиза: Reconstructed Version

Режиссер: Орсон Уэллс

rating

В ролях: Чарлтон Хестон, Джанет Ли, Орсон Уэллс, Аким Тамирофф, Джоэнна Кук Мур, Рэй Коллинз, Дэннис Уивер, Валентин Де Варгас, Морт Миллс, Джозеф Коттен, Виктор Миллан, Лало Риос, Майкл Сарджент, Фил Харви, Джои Лэнсинг, Гарри Шэннон

Описание: Агент отдела по борьбе с наркотиками Мигель Варгас и его молодая жена Сьюзан, проводя свой медовый месяц в небольшом городке на американо - мексиканской границе, становятся свидетелями преступления: бизнесмен взорван в своем автомобиле. Варгас принимает решение начать расследование, но продажный полицейский начинает ставить палки в колеса, фальсифицируя улики...

Качество: BDRip
Формат: AVI
Видео кодек: XviD
Аудио кодек: AC3
Видео: XviD, 1673 Кбит/с, 720x528, 23.976 кадр/с
Аудио: AC3, 2 ch, 192 Кбит/с, 48 kHz
Релиз от: Koenig
Общее
Полное имя : Touch of Evil.1958.BDRip.avi
Формат : AVI
Формат/Информация : Audio Video Interleave
Размер файла : 1,45 Гбайт
Продолжительность : 1 ч. 50 м.
Общий поток : 1874 Кбит/сек
Программа кодирования : VirtualDubMod 1.5.10.2 (build 2540/release)
Библиотека кодирования : VirtualDubMod build 2540/release

Видео
Идентификатор : 0
Формат : MPEG-4 Visual
Профиль формата : Advanced Simple@L5
Параметр BVOP формата : 1
Параметр QPel формата : Нет
Параметр GMC формата : Без точки перехода
Параметр матрицы формата : Выборочная
Идентификатор кодека : XVID
Идентификатор кодека/Подсказка : XviD
Продолжительность : 1 ч. 50 м.
Битрейт : 1673 Кбит/сек
Ширина : 720 пикселей
Высота : 528 пикселей
Соотношение сторон : 4:3
Частота кадров : 23,976 (24000/1001) кадра/сек
Частота кадров в оригинале : 23,976 (23976/1000) кадра/сек
Цветовое пространство : YUV
Субдискретизация насыщенности : 4:2:0
Битовая глубина : 8 бит
Тип развёртки : Прогрессивная
Метод сжатия : С потерями
Бит/(Пиксели*Кадры) : 0.184
Размер потока : 1,29 Гбайт (89%)
Библиотека кодирования : XviD 73

Аудио
Идентификатор : 1
Формат : AC-3
Формат/Информация : Audio Coding 3
Расширение режима : CM (complete main)
Параметр Endianness формата : Big
Идентификатор кодека : 2000
Продолжительность : 1 ч. 50 м.
Вид битрейта : Постоянный
Битрейт : 192 Кбит/сек
Каналы : 2 канала
Расположение каналов : Front: L R
Частота : 48,0 КГц
Частота кадров : 31,250 кадров/сек (1536 spf)
Битовая глубина : 16 бит
Метод сжатия : С потерями
Размер потока : 152 Мбайт (10%)
Выравнивание : Разделение по промежуткам
Продолжительность промежутка : 42 мс. (1,00 видеокадр)
Время предзагрузки промежутка : 500 мс.

pb.wtf



Скачать Печать зла через торрент http://pic1.kartinco.top/images/11/fhqyi.jpg Скачать фильм Печать зла через торрент бесплантно в хорошем качестве Описание: Агент отдела по борьбе с наркотиками Мигель Варгас и его молодая жена Сьюзан, проводя свой медовый месяц в небольшом городке на ... 10 10 2
Info! Золотая раздача, скачанное не засчитывается.
Торрент: Зарегистрирован [2016-12-10 12:05] · скачан: 12 раз
Статус: √ проверено
Размер: 1.45 GB
Как cкачать? Как скачать Печать зла через торрент | qTorrent


>> Регистрируемся здесь <<






Отзывы и комментарии о схеме читаем и пишем здесь: ---> Отзывы и комментарии о схеме

Новые благодарочки в телеграм довольных пользователей:
скриншот   скриншот   скриншот   скриншот   скриншот
    Дорогой пользователь! Огромная просьба, поблагодарите релизера, оцените раздачу и оставьте свои комментарий, если Вы скачали Печать зла через торрент бесплатно! Внесите свою лепту в развитие PiratBit!
    Комментировать посты могут только пользователи прошедшие не сложную регистрацию
    Показать сообщения:    

    Печать зла через торрент
    Скачать бесплатно Печать зла
    Печать зла скачать торрент
    Печать зла смотреть онлайн
    Cкачать фильм Печать зла бесплатно
    Печать зла скачать торрент в хорошем качестве
    Печать зла смотреть онлайн бесплатно в хорошем качестве


    Вы не можете начинать темы
    Вы не можете отвечать на сообщения
    Вы не можете редактировать свои сообщения
    Вы не можете удалять свои сообщения
    Вы не можете голосовать в опросах
    Вы не можете прикреплять файлы к сообщениям
    Вы можете скачивать файлы