Ссылка на приватное зеркало нашего сайта всего за 1$. Внимание количество ограничено!!!

2 сезон

iTunes

1 сезон

1

iTunes

iTunes

iTunes

1 сезон

RePack

30

ИГРА 18+

pack

ВАЖНО

!!Акция!!

Alien_RageХит недели

RePack

MK11
pack

Забери бонус

RePack

jed

!!Акция!!

Alien_Rage

RePack

fifa19

RePack

Assassins Creed: Odyssey

RePack

NEED FOR SPEED™ PAYBACK

4 сезон

9 сезон

Бесстыжие 9 сезон

Все сериалы

все сериалы на PB.wtf

RePack

FAR CRY 5
  

Тайны следствия / Сезон: 16 / Серии: 16 из 16 (Ольга Кандидатова) [2016, Детектив, драма, криминал HDTVRip-AVC] pb.wtf

Тайны следствия через торрент pb.wtf

Размер: 12.98 GB | Добавлен: 3 года 9 мес. назад | Торрент скачан:103 раза
Скачать  

10-12-2016 12:49 Тайны следствия Скачать торрент  

Тайны следствия
Сезон: 16 / Серии: 16 из 16


Оригинальное название: Тайны следствия
Год выпуска: 2016
Язык: Русский
Жанр: Детектив, драма, криминал
Выпущено: Россия
Режиссер: Ольга Кандидатова

В ролях: Анна Ковальчук, Вячеслав Захаров, Игорь Николаев (II), Александр Новиков (III), Игорь Григорьев (IV), Ольга Павловец, Дмитрий Поднозов, Андрей Шарков, Александр Шпилько, Лора Коробских, Жанна Куприянова

О фильме:Следователь Мария Швецова возвращается к расследованию самых сложных и запутанных дел в новом сезоне детективного сериала "Тайны следствия".
Качество: HDTVRip-AVC
Видео: MPEG-4 AVC, ~ 2000 Кбит/с, 1024x576, 25 кадр/с
Аудио: AC3, 2 ch, 192 Кбит/с ,48.0 kHz
Продолжительность: х ~ 00:45:00
Реклама : Нет
Внимание! Раздача ведётся путём добавления новых серий; при каждом добавлении создаётся новый торрент. Чтобы начать докачку новой серии, пользователям необходимо сделать следующее:
(1) остановить скачивание,
(2) удалить старый торрент у себя из клиента (старые серии удалять не надо),
(3) скачать новый торрент и запустить его у себя в клиенте вместо старого, при этом указать клиенту путь в старую папку куда и должно происходить скачивание новых серий.
Ваш клиент при этом должен произвести хеширование (проверку) старой папки (если не производит сам - помогите ему сделать это), и будет докачивать только те серии которых у вас ещё нет. Старые серии при этом не удаляются, а продолжают раздаваться!
Eсли вы уже удалили старые серии, то предотвратить повторную закачку старых серий можно, отжав галочку в соответствующих местах при запуске нового торрента. По возможности, желательно не удалять старые серии как можно дольше чтобы релизёр не столько продолжал раздавать старые серии, а смог сконцентрироваться на новых.
General
Unique ID : 229755368478910158667348342862688871320 (0xACD9463F52937DC9AD318526F4E8E398)
Complete name :
/home/re2sgsii/Видео/Tajny.sledstvija-16.2015.HDTVRip.(AVC).Files-x/Tajny.sledstvija-16.(01-02),ser.(2016).HDTVRip.(AVC).by.Серый1779.Files-x.mkv
Format : Matroska
Format version : Version 2
File size : 1.30 GiB
Duration : 1 h 24 min
Overall bit rate : 2 194 kb/s
Encoded date : UTC 2016-12-06 04:46:45
Writing application : mkvmerge v7.8.0 ('River Man') 32bit built on Apr 3 2015 12:11:22
Writing library : libebml v1.3.1 + libmatroska v1.4.2
Video
ID : 1
Format : AVC
Format/Info : Advanced Video Codec
Format profile : High@L4.1
Format settings, CABAC : Yes
Format settings, ReFrames : 9 frames
Codec ID : V_MPEG4/ISO/AVC
Duration : 1 h 24 min
Bit rate : 2 000 kb/s
Width : 1 024 pixels
Height : 576 pixels
Display aspect ratio : 16:9
Frame rate mode : Constant
Frame rate : 25.000 FPS
Color space : YUV
Chroma subsampling : 4:2:0
Bit depth : 8 bits
Scan type : Progressive
Bits/(Pixel*Frame) : 0.136
Stream size : 1.16 GiB (89%)
Writing library : x264 core 146 r2538 121396c
Encoding settings :
cabac=1 / ref=9 / deblock=1:-2:-1 / analyse=0x3:0x113 / me=umh / subme=9 / psy=1 / psy_rd=1.00:0.15 / mixed_ref=1 / me_range=32 / chroma_me=1 / trellis=2 / 8x8dct=1 / cqm=0 / deadzone=21,11 / fast_pskip=0 / chroma_qp_offset=-3 / threads=6 / lookahead_threads=1 / sliced_threads=0 / nr=0 / decimate=1 / interlaced=0 / bluray_compat=0 / constrained_intra=0 / bframes=9 / b_pyramid=2 / b_adapt=2 / b_bias=0 / direct=1 / weightb=1 / open_gop=0 / weightp=2 / keyint=250 / keyint_min=25 / scenecut=40 / intra_refresh=0 / rc_lookahead=40 / rc=2pass / mbtree=1 / bitrate=2000 / ratetol=1.0 / qcomp=0.60 / qpmin=0 / qpmax=69 / qpstep=4 / cplxblur=20.0 / qblur=0.5 / vbv_maxrate=14000 / vbv_bufsize=14000 / nal_hrd=none / filler=0 / ip_ratio=1.40 / aq=2:1.00
Default : Yes
Forced : No
Color range : Limited
Color primaries : BT.709
Transfer characteristics : BT.709
Matrix coefficients : BT.709 Audio
ID : 2
Format : AC-3
Format/Info : Audio Coding 3
Mode extension : CM (complete main)
Format settings, Endianness : Big
Codec ID : A_AC3
Duration : 1 h 24 min
Bit rate mode : Constant
Bit rate : 192 kb/s
Channel(s) : 2 channels
Channel positions : Front: L R
Sampling rate : 48.0 kHz
Frame rate : 31.250 FPS (1536 spf)
Bit depth : 16 bits
Compression mode : Lossy
Stream size : 116 MiB (9%)
Default : Yes
Forced : No
скриншот   скриншот   скриншот   скриншот   скриншот   скриншот  
pb.wtf



Скачать Тайны следствия через торрент http://pic1.kartinco.top/images/11/fyinv.jpg Скачать фильм Тайны следствия через торрент бесплантно в хорошем качестве О фильме:Следователь Мария Швецова возвращается к расследованию самых сложных и запутанных дел в новом сезоне детективного сериала "Тайны ... 9.8 10 12
Info! Золотая раздача, скачанное не засчитывается.
Торрент: Зарегистрирован [2017-01-01 07:42] · скачан: 103 раз
Статус: √ проверено
Размер: 12.98 GB
Как cкачать? Как скачать Тайны следствия через торрент | qTorrent

% Раздел Тема Автор DL S | L
Наши сериалы [ 24.86 GB ] Тайны следствия [2015 HDTVRip 720p] Оригинал DomSarD Скачать
1 | 0
Наши сериалы [ 41.68 GB ] Тайны следствия [2015 HDTV ] Оригинал Бумер Скачать
1 | 0
Наши сериалы [ 9.39 GB ] Тайны следствия / Сезон: 15 / Серии: 1-16 из 16 [2015 ьный фильм SATRip-AVC] aleksan55 Скачать
1 | 0
Наши сериалы [ 9.3 GB ] Тайны следствия [2014 SATRip] Оригинал Бумер Скачать
1 | 0
Наши сериалы [ 8.72 GB ] Тайны следствия / Сезон: 1 / Серии: 16 из 16 [2001 DVDRip] markfiter Скачать
1 | 0


Последний раз редактировалось: Re2sgsII (2017-02-06 12:09), всего редактировалось 5 раз(а)

28-11-2019 20:33  

Отключить всю рекламу на сайте

17-12-2016 12:53 Тайны следствия Скачать торрент  

Когда новые серии?pb.wtf



27-12-2016 16:29 Тайны следствия Скачать торрент  

Добавте новые серииpb.wtf



31-12-2016 21:58 Тайны следствия Скачать торрент  

lehapatr писал(а):

Добавте новые серии

Не получается выдает ошибку по прокси серверpb.wtf



01-01-2017 07:43 Тайны следствия Скачать торрент  

Все серии добавлены !pb.wtf



    Дорогой пользователь! Огромная просьба, поблагодарите релизера, оцените раздачу и оставьте свои комментарий, если Вы скачали Тайны следствия через торрент бесплатно! Внесите свою лепту в развитие PiratBit!
    Комментировать посты могут только пользователи прошедшие не сложную регистрацию
    Показать сообщения:    

    Тайны следствия через торрент
    Скачать бесплатно Тайны следствия
    Тайны следствия скачать торрент
    Тайны следствия смотреть онлайн
    Cкачать фильм Тайны следствия бесплатно
    Тайны следствия скачать торрент в хорошем качестве
    Тайны следствия смотреть онлайн бесплатно в хорошем качестве


    Вы не можете начинать темы
    Вы не можете отвечать на сообщения
    Вы не можете редактировать свои сообщения
    Вы не можете удалять свои сообщения
    Вы не можете голосовать в опросах
    Вы не можете прикреплять файлы к сообщениям
    Вы можете скачивать файлы