новый адрес
Мега распродажа FORZA HORIZON 4 ULTIMATE+ВСЕ DLC+ОНЛАЙН всего за 499р. 349 руб. (супер цена). Внимание количество ограничено!!!

iTunes

1+1

iTunes

мы

iTunes

1

iTunes

Чернобыль

iTunes

Ральф против интернета

Лицензия

ПШазам

Лицензия

Игра престолов

Лицензия

30
pack

ВАЖНО

!!Акция!!

Alien_RageХит недели

RePack

Resident Evil 21

ИГРА 18+

pack

RePack

Metro:Exodus

!!Акция!!

Alien_Rage

RePack

fifa19

RePack

Assassins Creed: Odyssey

RePack

NEED FOR SPEED™ PAYBACK

3 сезон

9 сезон

Бесстыжие 9 сезон

Все сериалы

все сериалы на PB.wtf

RePack

FAR CRY 5
Ребята, катастрофически не хватает 1900р. для оплаты серверов за Октябрь (всвязи с блокировками трафик упал в 3 раза), 1-2р., выручайте.
  

За Влacть Советов (Борис Бунеев) [1956, СССР, военный, драма, SATRip от AVP Studio] pb.wtf

За Влacть Советов через торрент pb.wtf

Размер: 1.46 GB | Добавлен: 2 года 11 мес. назад | Торрент скачан:8 раз
Скачать  

11-12-2016 07:48 За Влacть Советов Скачать торрент  

За Влacть Советов
Страна: СССР
Производство: к/ст им. Горького

Жанр: военный, драма
Год выпуска: 1956
Продолжительность: 01:33:25

Перевод: Не требуется
Cубтитры: нет
Оригинальная аудиодорожка: русский

Режиссер: Борис Бунеев

В ролях:
Борис Чирков, Даниил Сагал, Сергей Курилов, Пётр Мальцев (II), Нина Никитина, Валентина Хмара, Юлиан Панич, Борис Тенин, Лидия Сухаревская, Анатолий Игнатьев...
Полный список актёров

Описание:
По одноименному роману В. Катаева.
Июнь 1941 года. Война прерывает давно задуманное путешествие московского юриста Бачея и его сына Пети в Одессу, памятную отцу по воспоминаниям детства, сыну — по рассказам отца (отражены в 1-ой части трилогии «Белеет парус одинокий»). Посадив Петю на последний пароход, отправлявшийся из Одессы, Бачей уходит на фронт, не подозревая о том, что скоро встретится с сыном в Одесских катакомбах.

Источник: DVB
Качество видео: SATRip
Формат видео: AVI

Видео: 688x512 (4:3), 25 fps, XviD ~ 2036 kbps avg, 0.231 bit/pixel
Аудио: 48 kHz, Dolby Digital AC3 2.0, 192 kbps

Раздача от:
Общее
Полное имя : Za.vlast.Sovetov.1956.SATRip_[New-team]_by_AVP_Studio.avi
Формат : AVI
Формат/Информация : Audio Video Interleave
Размер файла : 1,46 Гбайт
Продолжительность : 1 ч. 33 м.
Общий поток : 2237 Кбит/сек
Программа кодирования : VirtualDubMod 1.5.10.3 | www.virtualdub-fr.org || (build 2550/release)
Библиотека кодирования : VirtualDubMod build 2550/release

Видео
Идентификатор : 0
Формат : MPEG-4 Visual
Профиль формата : Advanced Simple@L5
Параметр BVOP формата : 1
Параметр QPel формата : Нет
Параметр GMC формата : Без точки перехода
Параметр матрицы формата : Выборочная
Идентификатор кодека : XVID
Идентификатор кодека/Подсказка : XviD
Продолжительность : 1 ч. 33 м.
Битрейт : 2036 Кбит/сек
Ширина : 688 пикселей
Высота : 512 пикселей
Соотношение сторон : 4:3
Частота кадров : 25,000 кадров/сек
Цветовое пространство : YUV
Субдискретизация насыщенности : 4:2:0
Битовая глубина : 8 бит
Тип развёртки : Прогрессивная
Метод сжатия : С потерями
Бит/(Пиксели*Кадры) : 0.231
Размер потока : 1,33 Гбайт (91%)
Библиотека кодирования : XviD 1.2.1 (UTC 2008-12-04)

Аудио
Идентификатор : 1
Формат : AC-3
Формат/Информация : Audio Coding 3
Расширение режима : CM (complete main)
Параметр Endianness формата : Big
Идентификатор кодека : 2000
Продолжительность : 1 ч. 33 м.
Вид битрейта : Постоянный
Битрейт : 192 Кбит/сек
Каналы : 2 канала
Расположение каналов : Front: L R
Частота : 48,0 КГц
Частота кадров : 31,250 кадров/сек (1536 spf)
Битовая глубина : 16 бит
Метод сжатия : С потерями
Размер потока : 128 Мбайт (9%)
Выравнивание : Разделение по промежуткам
Продолжительность промежутка : 40 мс. (1,00 видеокадр)
Время предзагрузки промежутка : 500 мс
pb.wtf



Скачать За Влacть Советов через торрент http://s017.radikal.ru/i426/1612/71/c3f025c80803.png Скачать фильм За Влacть Советов через торрент бесплантно в хорошем качестве Описание:По одноименному роману В. Катаева.Июнь 1941 года. Война прерывает давно задуманное путешествие московского юриста Бачея и его сына ... 10 10 1
Info! Золотая раздача, скачанное не засчитывается.
Торрент: Зарегистрирован [2016-12-11 07:48] · скачан: 8 раз
Статус: √ проверено
Размер: 1.46 GB
Как cкачать? Как скачать За Влacть Советов через торрент | qTorrent


>> Регистрируемся здесь <<






Отзывы и комментарии о схеме читаем и пишем здесь: ---> Отзывы и комментарии о схеме

Новые благодарочки в телеграм довольных пользователей:
скриншот   скриншот   скриншот   скриншот   скриншот
    Дорогой пользователь! Огромная просьба, поблагодарите релизера, оцените раздачу и оставьте свои комментарий, если Вы скачали За Влacть Советов через торрент бесплатно! Внесите свою лепту в развитие PiratBit!
    Комментировать посты могут только пользователи прошедшие не сложную регистрацию
    Показать сообщения:    

    За Влacть Советов через торрент
    Скачать бесплатно За Влacть Советов
    За Влacть Советов скачать торрент
    За Влacть Советов смотреть онлайн
    Cкачать фильм За Влacть Советов бесплатно
    За Влacть Советов скачать торрент в хорошем качестве
    За Влacть Советов смотреть онлайн бесплатно в хорошем качестве


    Вы не можете начинать темы
    Вы не можете отвечать на сообщения
    Вы не можете редактировать свои сообщения
    Вы не можете удалять свои сообщения
    Вы не можете голосовать в опросах
    Вы не можете прикреплять файлы к сообщениям
    Вы можете скачивать файлы