Ссылка на приватное зеркало всего за 1$. Внимание количество ограничено!!!

OK

1+1

iTunes

мы

OK

1

WEB-DLRip

Джокер

Пифагор

Ведьмак / The Witcher сериал

Лицензия

ПШазам

ОК

Оно 2

iTunes

30
pack

Вам бонус

ВАЖНО

!!Акция!!

Alien_RageХит недели

RePack

Resident Evil 21

ИГРА 18+

pack

RePack

jed

!!Акция!!

Alien_Rage

RePack

fifa19

RePack

Assassins Creed: Odyssey

RePack

NEED FOR SPEED™ PAYBACK

4 сезон

9 сезон

Бесстыжие 9 сезон

Все сериалы

все сериалы на PB.wtf

RePack

FAR CRY 5
  

Пять невест (Карен Оганесян) [2011, Комедия, BDRip by _Один_777] pb.wtf

Пять невест через торрент pb.wtf

Размер: 751 MB | Добавлен: 3 года 1 мес. назад | Торрент скачан:19 раз
Скачать  

11-12-2016 11:39 Пять невест Скачать торрент  

Пять невест
«Комедия о любви и дружбе»

Год выпуска: 2011
Страна: Россия / Централ Партнершип
Жанр: Комедия
Продолжительность: 01:43:19
Cубтитры: нет

Режиссёр: Карен Оганесян

В ролях: Данила Козловский, Елизавета Боярская, Артур Смольянинов, Светлана Ходченкова, Владимир Яглыч, Юлия Пересильд, Александр Лойе, Ксения Роменкова, Хорен Левонян, Ирина Пегова, Марина Голуб, Андрей Федорцов, Анна Табанина, Михаил Горевой, Валерий Золотухин, Виктор Молчан, Игорь Савочкин, Константин Воробьёв, Алексей Дмитриев, Анна Цуканова, Светлана Никифорова, Геннадий Фомин, Сергей Жбанков, Борис Гергалов, Тамара Миронова, Александр Сухоцкий, Роман Садчило, Александр Брухацкий, Светлана Некипелова, Алеся Пуховая, Олег Ткачёв, Валерий Кащеев...

Описание: Май 1945 года. Вся страна ликует и строит планы на новую послевоенную жизнь. Счастливые воины-победители, дошедшие до Берлина, мечтают вернуться героями домой. Но их не спешат отпускать… Очень расстроены этим обстоятельством бравые летчики-истребители Вадик, Леша, Гарик, Ваня и Миша. Ведь в их отсутствие всех красивых девчонок могут разобрать!
Леше Каверину повезло - его отправляют в командировку на Родину. У друзей рождается авантюрный план: Леша должен найти друзьям невест и жениться на них, используя удостоверения ребят. И на все про все у него всего одни сутки…


Сэмпл: http://sendfile.su/1289596


Качество видео: BDRip
Формат видео: AVI
Видео кодек: XviD
Аудио кодек: МР3
Видео: 640x352 (1.82:1), 25 fps, XviD build 50 ~878 kbps avg, 0.16 bit/pixel
Аудио: 48 kHz, MPEG Layer 3, 2 ch, ~128.00 kbps avg
Общее
Полное имя : F:\Pjat;'.nevest.2011.BDRip.740.[Один 777].avi
Формат : AVI
Формат/Информация : Audio Video Interleave
Размер файла : 751 Мбайт
Продолжительность : 1 ч. 43 м.
Общий поток : 1017 Кбит/сек
Программа кодирования : VirtualDubMod 1.5.10.3 | www.virtualdub-fr.org || (build 2550/release)
Библиотека кодирования : VirtualDubMod build 2550/release

Видео
Идентификатор : 0
Формат : MPEG-4 Visual
Профиль формата : Advanced Simple@L5
Параметр BVOP формата : 1
Параметр QPel формата : Нет
Параметр GMC формата : Без точки перехода
Параметр матрицы формата : Default (MPEG)
Идентификатор кодека : XVID
Идентификатор кодека/Подсказка : XviD
Продолжительность : 1 ч. 43 м.
Битрейт : 879 Кбит/сек
Ширина : 640 пикселей
Высота : 352 пикселя
Соотношение сторон : 16:9
Частота кадров : 25,000 кадров/сек
Цветовое пространство : YUV
Субдискретизация насыщенности : 4:2:0
Битовая глубина : 8 бит
Тип развёртки : Прогрессивная
Метод сжатия : С потерями
Бит/(Пиксели*Кадры) : 0.156
Размер потока : 650 Мбайт (86%)
Библиотека кодирования : XviD 1.2.1 (UTC 2008-12-04)

Аудио
Идентификатор : 1
Формат : MPEG Audio
Версия формата : Version 1
Профиль формата : Layer 3
Идентификатор кодека : 55
Идентификатор кодека/Подсказка : MP3
Продолжительность : 1 ч. 43 м.
Вид битрейта : Постоянный
Битрейт : 128 Кбит/сек
Каналы : 2 канала
Частота : 48,0 КГц
Метод сжатия : С потерями
Размер потока : 94,6 Мбайт (13%)
Выравнивание : Соединение по промежуткам
Продолжительность промежутка : 40 мс. (1,00 видеокадр)
Время предзагрузки промежутка : 504 мс.
Библиотека кодирования : LAME3.98r
Настройки программы : -m s -V 4 -q 2 -lowpass 17 -b 128
pb.wtf



Скачать Пять невест через торрент http://i76.fastpic.ru/big/2016/0301/0f/20ac29592ccdc16b92ae0c1e1aa2b00f.jpg Скачать фильм Пять невест через торрент бесплантно в хорошем качестве Описание: Май 1945 года. Вся страна ликует и строит планы на новую послевоенную жизнь. Счастливые воины-победители, дошедшие до Берлина, ... 10 10 2
Info! Золотая раздача, скачанное не засчитывается.
Торрент: Зарегистрирован [2016-12-11 11:39] · скачан: 19 раз
Статус: √ проверено
Размер: 751 MB
Как cкачать? Как скачать Пять невест через торрент | qTorrent

% Раздел Тема Автор DL S | L
Наши фильмы (HD, WEB-DL 720p, 1080p) [ 13.07 GB ] Пять невест [2011 BDRip 1080p by msltel] msltel Скачать
1 | 0
Наши фильмы (HD, WEB-DL 720p, 1080p) [ 5.01 GB ] Пять невест [2011 BDRip 720p by msltel] msltel Скачать
1 | 0
Наши сериалы [ 2.14 GB ] Пять невест / Серии 1-4 из 4 [2011 HDTVRip by _Один_777] Полная телеверсия Один 777 Скачать
1 | 0
Наши фильмы (HD, WEB-DL 720p, 1080p) [ 4.92 GB ] Пять невест [2011 BDRip 720p] Original Rus Shmel Скачать
1 | 0
Наши фильмы 2010-2011 [ 1.45 GB ] Пять невест [2011 BDRip] Anonymous Скачать
1 | 0
Наши фильмы 2010-2011 [ 1.36 GB ] Пять невест [2011 HDRip] shuller Скачать
1 | 0
Наши фильмы (DVD фильмы) [ 5.95 GB ] Пять невест [2011 DVD9] R5 voovaz Скачать
1 | 0

28-11-2019 20:33  

Отключить всю рекламу на сайте

    Дорогой пользователь! Огромная просьба, поблагодарите релизера, оцените раздачу и оставьте свои комментарий, если Вы скачали Пять невест через торрент бесплатно! Внесите свою лепту в развитие PiratBit!
    Комментировать посты могут только пользователи прошедшие не сложную регистрацию
    Показать сообщения:    

    Пять невест через торрент
    Скачать бесплатно Пять невест
    Пять невест скачать торрент
    Пять невест смотреть онлайн
    Cкачать фильм Пять невест бесплатно
    Пять невест скачать торрент в хорошем качестве
    Пять невест смотреть онлайн бесплатно в хорошем качестве


    Вы не можете начинать темы
    Вы не можете отвечать на сообщения
    Вы не можете редактировать свои сообщения
    Вы не можете удалять свои сообщения
    Вы не можете голосовать в опросах
    Вы не можете прикреплять файлы к сообщениям
    Вы можете скачивать файлы