2 сезон

iTunes

MVO

1

2 сезон

iTunes

iTunes

1 сезон

RePack

30

Ultimate

ВАЖНО

ИГРА 18+

pack

RePack

MK11
pack

Легкие деньги

RePack

jed

RePack

fifa19

RePack

RDR2

RePack

NEED FOR SPEED™ PAYBACK

4 сезон

9 сезон

Бесстыжие 9 сезон

Все сериалы

все сериалы на PB.wtf

RePack

FAR CRY 5

Anonymous, доброй ночи, мы не успеваем собрать деньги на оплату серверов за декабрь и январь, помогите нам пожалуйста в это трудное время. В качестве благодарности мы отключим Вам всю рекламу на сайте (укажите свой ник в строку Ваше имя)!

×
  
Magnet ссылка

Космос: Пространство и время / Космос: подорож у просторі та часі / Cosmos: A SpaceTime Odyssey / Сезон: 1 / Серии: 1-13 из 13 (Билл Поуп) [2014, США, документальный, BDRip 720p] Профессиональный многоголосый (UKR) pb.wtf

Космос: Пространство и время через торрент pb.wtf

Размер: 38.73 GB | Добавлен: 4 года 1 мес. назад | Торрент скачан:23 раза
Скачать  

12-12-2016 00:50 Космос: Пространство и время Скачать торрент  

Космос: Пространство и время / Космос: подорож у просторі та часі / Cosmos: A SpaceTime Odyssey

Год выпуска: 2014
Страна: США
Жанр: документальный
Продолжительность: 00:43:47
Перевод:
Профессиональный (многоголосый, закадровый) |Украинский|
Режиссер: Билл Поуп / Bill Pope
В ролях: Нил Тайсон (играет самого себя - ведущий), Питер Эмшвиллер (George Tilton, озвучка), Бетани Леви (Businesswoman), Мехди Мерали (Cab Driver), Nadia Rochelle Pfarr (Malala Yousefzai), Пол Телфер (Angry Scholar #2)
Описание:
Документальный сериал рассказывает о последних научных открытиях, которые были сделаны в области астронавтики, астрофизики и других наук. Сериал «Космос: Путешествие во времени» является продолжением научно-популярной серии фильмов «Космос: Персональное путешествие с Карлом Саганом» и отражает события последних трех десятилетий. Астрофизик Нил Деграсс Тайсон с соавторами (среди которых вдова Сагана Энн Драйэн) расскажет об открытых законах мира космоса, о возможности межпланетных путешествий и наблюдении за космическими процессами. Все самые сложные понятия представлены с потрясающей четкостью, в повествовании соединяются научная точность и эмоциональность. Трехмерная компьютерная графика, уникальные съемки и использование спецэффектов делают каждый эпизод захватывающим и необычным.
Рейтинг
rating
Качество: BDRip 720p | Исходник: Blu-Ray 1080p
Формат: MKV
Видео кодек: AVC
Аудио кодек: AC3/DTS
Видео: AVC, 1280x720 (16:9), 23.976 fps, 7 568 Kbps (0.343 bit/pixel)
Аудио #1: AC-3, 48.0 KHz, 2 ch, 192 Kbps, CBR (Ukrainian)
Аудио #2: DTS, 48.0 KHz, 6 ch, 1 510 Kbps, CBR (English)
Субтитры: English


Общее
Уникальный идентификатор : 192424016035769162135504861711746465151 (0x90C384779EAD27D5A41E0259CD53FD7F)
Полное имя : F:\PC Share\Cosmos.A.Spacetime.Odyssey.2014.S01.[Ukr,Eng sub.Eng].BDRip.720p.[Hurtom&HDClub]\s01e13.Unafraid of the Dark.mkv
Формат : Matroska
Версия формата : Version 4 / Version 2
Размер файла : 2,98 Гбайт
Продолжительность : 46 м. 0 с.
Общий поток : 9270 Кбит/сек
Название фильма : Cosmos: A Spacetime Odyssey (2014) S01E13 Unafraid of the Dark [Hurtom & HDClub]
Дата кодирования : UTC 2015-03-21 20:12:37
Программа кодирования : mkvmerge v7.7.0 ('Six Voices') 64bit built on Feb 28 2015 23:39:33
Библиотека кодирования : libebml v1.3.1 + libmatroska v1.4.2

Видео
Идентификатор : 1
Формат : AVC
Формат/Информация : Advanced Video Codec
Профиль формата : High@L4.1
Параметр CABAC формата : Да
Параметр ReFrames формата : 9 кадров
Идентификатор кодека : V_MPEG4/ISO/AVC
Продолжительность : 46 м. 0 с.
Битрейт : 7568 Кбит/сек
Ширина : 1280 пикселей
Высота : 720 пикселей
Соотношение сторон : 16:9
Режим частоты кадров : Постоянный
Частота кадров : 23,976 кадра/сек
Цветовое пространство : YUV
Субдискретизация насыщенности : 4:2:0
Битовая глубина : 8 бит
Тип развёртки : Прогрессивная
Бит/(Пиксели*Кадры) : 0.343
Размер потока : 2,43 Гбайт (82%)
Заголовок : s01e13 Unafraid of the Dark, Cosmos: A Spacetime Odyssey (2014) BDRip 720p [HDClub-Messafan]
Библиотека кодирования : x264 core 142 r2431kMod ac76440
Настройки программы : cabac=1 / ref=9 / deblock=1:-3:-3 / analyse=0x3:0x113 / me=umh / subme=10 / psy=1 / fade_compensate=0.00 / psy_rd=1.01:0.05 / mixed_ref=1 / me_range=32 / chroma_me=1 / trellis=2 / 8x8dct=1 / cqm=0 / deadzone=21,11 / fast_pskip=0 / chroma_qp_offset=-5 / threads=6 / lookahead_threads=1 / sliced_threads=0 / nr=0 / decimate=1 / interlaced=0 / bluray_compat=0 / constrained_intra=0 / fgo=0 / bframes=10 / b_pyramid=2 / b_adapt=2 / b_bias=0 / direct=3 / weightb=1 / open_gop=0 / weightp=1 / keyint=240 / keyint_min=23 / scenecut=40 / intra_refresh=0 / rc_lookahead=60 / rc=2pass / mbtree=1 / bitrate=7568 / ratetol=1.0 / qcomp=0.80 / qpmin=0 / qpmax=69 / qpstep=4 / cplxblur=20.0 / qblur=0.5 / vbv_maxrate=50000 / vbv_bufsize=62500 / nal_hrd=none / filler=0 / ip_ratio=1.25 / aq=1:0.70
Язык : English
Default : Да
Forced : Нет

Аудио #1
Идентификатор : 2
Формат : AC-3
Формат/Информация : Audio Coding 3
Расширение режима : CM (complete main)
Параметр Endianness формата : Big
Идентификатор кодека : A_AC3
Продолжительность : 46 м. 0 с.
Вид битрейта : Постоянный
Битрейт : 192 Кбит/сек
Каналы : 2 канала
Расположение каналов : Front: L R
Частота : 48,0 КГц
Частота кадров : 31,250 кадров/сек (1536 spf)
Метод сжатия : С потерями
Размер потока : 63,2 Мбайт (2%)
Заголовок : MVO [Nat Geo UA] AC3 2.0 192 kbps [Hurtom-Gelios,radiolux]
Язык : Ukrainian
Default : Да
Forced : Нет

Аудио #2
Идентификатор : 3
Формат : DTS
Формат/Информация : Digital Theater Systems
Режим : 16
Параметр Endianness формата : Big
Идентификатор кодека : A_DTS
Продолжительность : 46 м. 0 с.
Вид битрейта : Постоянный
Битрейт : 1509 Кбит/сек
Каналы : 6 каналов
Расположение каналов : Front: L C R, Side: L R, LFE
Частота : 48,0 КГц
Частота кадров : 93,750 кадра/сек (512 spf)
Битовая глубина : 24 бит
Метод сжатия : С потерями
Размер потока : 497 Мбайт (16%)
Заголовок : Original DTS 5.1 1509 kbps
Язык : English
Default : Нет
Forced : Нет

Текст
Идентификатор : 4
Формат : UTF-8
Идентификатор кодека : S_TEXT/UTF8
Идентификатор кодека/Информация : UTF-8 Plain Text
Продолжительность : 42 м. 14 с.
Битрейт : 97 бит/сек
Count of elements : 750
Размер потока : 30,2 Кбайт (0%)
Язык : English
Default : Нет
Forced : Нет

Меню
00:00:00.000 : en:Chapter 01
00:04:49.372 : en:Chapter 02
00:07:23.693 : en:Chapter 03
00:10:44.435 : en:Chapter 04
00:13:09.497 : en:Chapter 05
00:16:46.755 : en:Chapter 06
00:21:31.081 : en:Chapter 07
00:27:17.052 : en:Chapter 08
00:31:18.835 : en:Chapter 09
00:33:31.718 : en:Chapter 10
00:37:37.922 : en:Chapter 11
00:43:22.391 : en:Chapter 12
скриншот  скриншот  скриншот  скриншот  


pb.wtf



Скачать Космос: Пространство и время через торрент http://i82.fastpic.ru/big/2016/1212/6e/0a63f49e133fb61148756e24df4ab46e.png Скачать фильм Космос: Пространство и время через торрент бесплантно в хорошем качестве Описание: Документальный сериал рассказывает о последних научных открытиях, которые были сделаны в области астронавтики, астрофизики и ... 7 10 3
Info! Золотая раздача, скачанное не засчитывается.
Торрент: Зарегистрирован [2016-12-12 00:50] · скачан: 23 раз
Статус: √ проверено
Размер: 38.73 GB
Как cкачать? Как скачать Космос: Пространство и время через торрент | UTorrent

28-11-2019 20:33  

Отключить всю рекламу на сайте

    Дорогой пользователь! Огромная просьба, поблагодарите релизера, оцените раздачу и оставьте свои комментарий, если Вы скачали Космос: Пространство и время через торрент бесплатно! Внесите свою лепту в развитие PiratBit!
    Комментировать посты могут только пользователи прошедшие не сложную регистрацию
    Показать сообщения:    

    Космос: Пространство и время через торрент
    Скачать бесплатно Космос: Пространство и время
    Космос: Пространство и время скачать торрент
    Космос: Пространство и время смотреть онлайн
    Cкачать фильм Космос: Пространство и время бесплатно
    Космос: Пространство и время скачать торрент в хорошем качестве
    Космос: Пространство и время смотреть онлайн бесплатно в хорошем качестве


    Вы не можете начинать темы
    Вы не можете отвечать на сообщения
    Вы не можете редактировать свои сообщения
    Вы не можете удалять свои сообщения
    Вы не можете голосовать в опросах
    Вы не можете прикреплять файлы к сообщениям
    Вы можете скачивать файлы