Ссылка на приватное зеркало нашего сайта всего за 1$. Внимание количество ограничено!!!

2 сезон

iTunes

1 сезон

1

iTunes

iTunes

iTunes

1 сезон

RePack

30

ИГРА 18+

pack

ВАЖНО

!!Акция!!

Alien_RageХит недели

RePack

MK11
pack

Забери бонус

RePack

jed

!!Акция!!

Alien_Rage

RePack

fifa19

RePack

Assassins Creed: Odyssey

RePack

NEED FOR SPEED™ PAYBACK

4 сезон

9 сезон

Бесстыжие 9 сезон

Все сериалы

все сериалы на PB.wtf

RePack

FAR CRY 5
  

Мастер и Маргарита / Серии 1-4 из 4 (Юрий Кара) [1994 г., Мистика, драма, детектив, фэнтези, HDRip-DVDScreener] Полная (режиссерская) версия pb.wtf

Мастер и Маргарита через торрент pb.wtf

Размер: 2.16 GB | Добавлен: 3 года 10 мес. назад | Торрент скачан:91 раз
Скачать  

12-12-2016 09:31 Мастер и Маргарита Скачать торрент  

Мастер и Маргарита
«Здесь укрылась нечистая сила»
Полная (режиссерская) версия [серии 1-4 из 4]

Год выпуска: 1994
Страна: Россия / Творческая Ассоциация Международных Программ
Жанр: Мистика, драма, детектив, фэнтези
Продолжительность: 4 х ~ 00:50:00 (03:20:36)
Cубтитры: нет

Режиссер: Юрий Кара

В ролях: Михаил Ульянов, Валентин Гафт, Анастасия Вертинская, Виктор Раков, Александр Филиппенко, Сергей Гармаш, Лев Дуров, Сергей Никоненко, Николай Бурляев, Леонид Куравлёв...

Описание: Действие происходит в 1920-1930-е годы в сталинской Москве и в годы жизни Иисуса Христа в Ершалаиме. Мастер с гениальным озарением описал последние дни жизни Спасителя в своем романе о Понтии Пилате, за который поплатился свободой. Его тайная возлюбленная Маргарита готова на сделку с дьяволом, лишь бы спасти Мастера. В это время некто Воланд, посетивший Москву со своей свитой, наводит ужас на обывателей. Но в мире, где укоренилось зло, и засела нечистая сила, проделки сатаны, окрашенные искрометным юмором, оборачиваются возмездием за людские грехи и пороки.


Сэмпл: http://sendfile.su/1289844

Качество: HDRip (вставки DVDScreener)
Формат: AVI
Видео кодек: XviD
Аудио кодек: AC3
Видео: 704x528 (1.33:1), 25 fps, XviD build 73 ~1353 kbps avg, 0.14 bit/pixel
Аудио: 48 kHz, AC3 Dolby Digital, 2/0 (L,R) ch, ~192 kbps
Полная (режиссерская) версия фильма.
«Мастер и Маргарита» - экранизация одноимённого романа Михаила Булгакова режиссёра Юрия Кары, снятая в 1994 году, но не увидевшая свет до 2011 года из-за разногласий режиссёра и продюсеров - фирмы «ТАМП», владеющей правами на фильм, а позднее — из-за претензий С. С. Шиловского и Д. В. Писарчик, потомков третьей жены Булгакова Е. С. Булгаковой (Шиловской), которым принадлежат имущественные авторские права на роман (данная точка зрения оспаривается создателями фильма).
Камнем преткновения оказалась длительность фильма, которая в режиссёрской версии составляла 3 часа и 20 минут. По требованию продюсеров она была сокращена до двух часов, ради чего пришлось убрать многие сюжетные линии. Это вызвало недовольство актёров.
Закрытый показ сокращённой 118-минутной версии фильма состоялся на XXVIII Московском международном кинофестивале в 2006 году. В прокат в СНГ фильм вышел 7 апреля 2011 года.
В начале декабря 2006 года в сильно сжатом виде и невысоком разрешении (320×240) фильм был выложен человеком под ником Alexo. В данном варианте наблюдаются некоторые огрехи монтажа и озвучивания, однако версия, насчитывающая 4 серии по 50 минут каждая, близка к финальной. По неофициальной версии, этот вариант - монтажная копия, изготовленная для согласования сокращений фильма. Впоследствии фильм быстро разошёлся по Интернету, несмотря на попытки противодействия (в кратчайшие сроки после публикации фильм был удален с большинства крупных сайтов и трекеров).
На DVD и Blu-ray кинопрокатная версия фильма была выпущена 3 мая 2011 года компанией «Флагман Дистрибьюшн», по слухам, готовится к изданию полная режиссёрская версия (которой нет и по сей день!).
Общее
Полное имя : F:\Master.i.Margarita.1994.HDRip-DVDScreener\01.Master.i.Margarita.1994.HDRip-DVDScreener.avi
Формат : AVI
Формат/Информация : Audio Video Interleave
Размер файла : 552 Мбайт
Продолжительность : 49 м.
Общий поток : 1555 Кбит/сек
Программа кодирования : VirtualDubMod 1.5.10.3 | www.virtualdub-fr.org || (build 2550/release)
Библиотека кодирования : VirtualDubMod build 2550/release

Видео
Идентификатор : 0
Формат : MPEG-4 Visual
Профиль формата : Advanced Simple@L5
Параметр BVOP формата : 1
Параметр QPel формата : Нет
Параметр GMC формата : Без точки перехода
Параметр матрицы формата : Default (H.263)
Идентификатор кодека : XVID
Идентификатор кодека/Подсказка : XviD
Продолжительность : 49 м.
Битрейт : 1353 Кбит/сек
Ширина : 704 пикселя
Высота : 528 пикселей
Соотношение сторон : 4:3
Частота кадров : 25,000 кадров/сек
Цветовое пространство : YUV
Субдискретизация насыщенности : 4:2:0
Битовая глубина : 8 бит
Тип развёртки : Прогрессивная
Метод сжатия : С потерями
Бит/(Пиксели*Кадры) : 0.146
Размер потока : 480 Мбайт (87%)
Библиотека кодирования : XviD 73

Аудио
Идентификатор : 1
Формат : AC-3
Формат/Информация : Audio Coding 3
Расширение режима : CM (complete main)
Параметр Endianness формата : Big
Идентификатор кодека : 2000
Продолжительность : 49 м.
Вид битрейта : Постоянный
Битрейт : 192 Кбит/сек
Каналы : 2 канала
Расположение каналов : Front: L R
Частота : 48,0 КГц
Частота кадров : 31,250 кадров/сек (1536 spf)
Метод сжатия : С потерями
Размер потока : 68,1 Мбайт (12%)
Выравнивание : Разделение по промежуткам
Продолжительность промежутка : 40 мс. (1,00 видеокадр)
Время предзагрузки промежутка : 500 мс.

Общее
Полное имя : F:\Master.i.Margarita.1994.HDRip-DVDScreener\02.Master.i.Margarita.1994.HDRip-DVDScreener.avi
Формат : AVI
Формат/Информация : Audio Video Interleave
Размер файла : 552 Мбайт
Продолжительность : 48 м.
Общий поток : 1582 Кбит/сек
Программа кодирования : VirtualDubMod 1.5.10.3 | www.virtualdub-fr.org || (build 2550/release)
Библиотека кодирования : VirtualDubMod build 2550/release

Видео
Идентификатор : 0
Формат : MPEG-4 Visual
Профиль формата : Advanced Simple@L5
Параметр BVOP формата : 1
Параметр QPel формата : Нет
Параметр GMC формата : Без точки перехода
Параметр матрицы формата : Default (H.263)
Идентификатор кодека : XVID
Идентификатор кодека/Подсказка : XviD
Продолжительность : 48 м.
Битрейт : 1380 Кбит/сек
Ширина : 704 пикселя
Высота : 528 пикселей
Соотношение сторон : 4:3
Частота кадров : 25,000 кадров/сек
Цветовое пространство : YUV
Субдискретизация насыщенности : 4:2:0
Битовая глубина : 8 бит
Тип развёртки : Прогрессивная
Метод сжатия : С потерями
Бит/(Пиксели*Кадры) : 0.148
Размер потока : 482 Мбайт (87%)
Библиотека кодирования : XviD 73

Аудио
Идентификатор : 1
Формат : AC-3
Формат/Информация : Audio Coding 3
Расширение режима : CM (complete main)
Параметр Endianness формата : Big
Идентификатор кодека : 2000
Продолжительность : 48 м.
Вид битрейта : Постоянный
Битрейт : 192 Кбит/сек
Каналы : 2 канала
Расположение каналов : Front: L R
Частота : 48,0 КГц
Частота кадров : 31,250 кадров/сек (1536 spf)
Метод сжатия : С потерями
Размер потока : 67,0 Мбайт (12%)
Выравнивание : Разделение по промежуткам
Продолжительность промежутка : 40 мс. (1,00 видеокадр)
Время предзагрузки промежутка : 500 мс.

Общее
Полное имя : F:\Master.i.Margarita.1994.HDRip-DVDScreener\03.Master.i.Margarita.1994.HDRip-DVDScreener.avi
Формат : AVI
Формат/Информация : Audio Video Interleave
Размер файла : 552 Мбайт
Продолжительность : 46 м.
Общий поток : 1647 Кбит/сек
Программа кодирования : VirtualDubMod 1.5.10.3 | www.virtualdub-fr.org || (build 2550/release)
Библиотека кодирования : VirtualDubMod build 2550/release

Видео
Идентификатор : 0
Формат : MPEG-4 Visual
Профиль формата : Advanced Simple@L5
Параметр BVOP формата : 1
Параметр QPel формата : Нет
Параметр GMC формата : Без точки перехода
Параметр матрицы формата : Default (H.263)
Идентификатор кодека : XVID
Идентификатор кодека/Подсказка : XviD
Продолжительность : 46 м.
Битрейт : 1445 Кбит/сек
Ширина : 704 пикселя
Высота : 528 пикселей
Соотношение сторон : 4:3
Частота кадров : 25,000 кадров/сек
Цветовое пространство : YUV
Субдискретизация насыщенности : 4:2:0
Битовая глубина : 8 бит
Тип развёртки : Прогрессивная
Метод сжатия : С потерями
Бит/(Пиксели*Кадры) : 0.155
Размер потока : 484 Мбайт (88%)
Библиотека кодирования : XviD 73

Аудио
Идентификатор : 1
Формат : AC-3
Формат/Информация : Audio Coding 3
Расширение режима : CM (complete main)
Параметр Endianness формата : Big
Идентификатор кодека : 2000
Продолжительность : 46 м.
Вид битрейта : Постоянный
Битрейт : 192 Кбит/сек
Каналы : 2 канала
Расположение каналов : Front: L R
Частота : 48,0 КГц
Частота кадров : 31,250 кадров/сек (1536 spf)
Метод сжатия : С потерями
Размер потока : 64,4 Мбайт (12%)
Выравнивание : Разделение по промежуткам
Продолжительность промежутка : 40 мс. (1,00 видеокадр)
Время предзагрузки промежутка : 500 мс.

Общее
Полное имя : F:\Master.i.Margarita.1994.HDRip-DVDScreener\04.Master.i.Margarita.1994.HDRip-DVDScreener.avi
Формат : AVI
Формат/Информация : Audio Video Interleave
Размер файла : 552 Мбайт
Продолжительность : 49 м.
Общий поток : 1564 Кбит/сек
Программа кодирования : VirtualDubMod 1.5.10.3 | www.virtualdub-fr.org || (build 2550/release)
Библиотека кодирования : VirtualDubMod build 2550/release

Видео
Идентификатор : 0
Формат : MPEG-4 Visual
Профиль формата : Advanced Simple@L5
Параметр BVOP формата : 1
Параметр QPel формата : Нет
Параметр GMC формата : Без точки перехода
Параметр матрицы формата : Default (H.263)
Идентификатор кодека : XVID
Идентификатор кодека/Подсказка : XviD
Продолжительность : 49 м.
Битрейт : 1362 Кбит/сек
Ширина : 704 пикселя
Высота : 528 пикселей
Соотношение сторон : 4:3
Частота кадров : 25,000 кадров/сек
Цветовое пространство : YUV
Субдискретизация насыщенности : 4:2:0
Битовая глубина : 8 бит
Тип развёртки : Прогрессивная
Метод сжатия : С потерями
Бит/(Пиксели*Кадры) : 0.147
Размер потока : 481 Мбайт (87%)
Библиотека кодирования : XviD 73

Аудио
Идентификатор : 1
Формат : AC-3
Формат/Информация : Audio Coding 3
Расширение режима : CM (complete main)
Параметр Endianness формата : Big
Идентификатор кодека : 2000
Продолжительность : 49 м.
Вид битрейта : Постоянный
Битрейт : 192 Кбит/сек
Каналы : 2 канала
Расположение каналов : Front: L R
Частота : 48,0 КГц
Частота кадров : 31,250 кадров/сек (1536 spf)
Метод сжатия : С потерями
Размер потока : 67,8 Мбайт (12%)
Выравнивание : Разделение по промежуткам
Продолжительность промежутка : 40 мс. (1,00 видеокадр)
Время предзагрузки промежутка : 500 мс.
HDRip

вставки DVDScreener
pb.wtf



Скачать Мастер и Маргарита через торрент http://i4.imageban.ru/out/2016/12/12/88cb01398a67966a898b17d91234629c.jpg Скачать фильм Мастер и Маргарита через торрент бесплантно в хорошем качестве Описание: Действие происходит в 1920-1930-е годы в сталинской Москве и в годы жизни Иисуса Христа в Ершалаиме. Мастер с гениальным ... 10 10 7
Info! Золотая раздача, скачанное не засчитывается.
Торрент: Зарегистрирован [2016-12-12 09:31] · скачан: 91 раз
Статус: √ проверено
Размер: 2.16 GB
Как cкачать? Как скачать Мастер и Маргарита через торрент | qTorrent

28-11-2019 20:33  

Отключить всю рекламу на сайте

12-12-2016 23:51 Мастер и Маргарита Скачать торрент  

Большое спасибо. Смотрел раньше в жутком качестве , с удовольствием посмотрю еще.pb.wtf



    Дорогой пользователь! Огромная просьба, поблагодарите релизера, оцените раздачу и оставьте свои комментарий, если Вы скачали Мастер и Маргарита через торрент бесплатно! Внесите свою лепту в развитие PiratBit!
    Комментировать посты могут только пользователи прошедшие не сложную регистрацию
    Показать сообщения:    

    Мастер и Маргарита через торрент
    Скачать бесплатно Мастер и Маргарита
    Мастер и Маргарита скачать торрент
    Мастер и Маргарита смотреть онлайн
    Cкачать фильм Мастер и Маргарита бесплатно
    Мастер и Маргарита скачать торрент в хорошем качестве
    Мастер и Маргарита смотреть онлайн бесплатно в хорошем качестве


    Вы не можете начинать темы
    Вы не можете отвечать на сообщения
    Вы не можете редактировать свои сообщения
    Вы не можете удалять свои сообщения
    Вы не можете голосовать в опросах
    Вы не можете прикреплять файлы к сообщениям
    Вы можете скачивать файлы