Ссылка на приватное зеркало нашего сайта всего за 1$. Внимание количество ограничено!!!

2 сезон

iTunes

1 сезон

1

2 сезон

2 сезон

iTunes

1 сезон

RePack

30

Ultimate

ВАЖНО

ИГРА 18+

pack

RePack

MK11
pack

Забери бонус

RePack

jed

!!Акция!!

Alien_Rage

RePack

fifa19

RePack

Assassins Creed: Odyssey

RePack

NEED FOR SPEED™ PAYBACK

4 сезон

9 сезон

Бесстыжие 9 сезон

Все сериалы

все сериалы на PB.wtf

RePack

FAR CRY 5
  

Детективное агентство Дирка Джентли / Dirk Gently's Holistic Detective Agency / Сезон 1 / 1-8 серия из 8 (Пако Кабесас, Дин Паризо, Майкл Патрик Джэнн) [2016 г., комедия, фантастика, WEB-DLRip] [MVO] (AlexFilm) pb.wtf

Детективное агентство Дирка Джентли через торрент pb.wtf

Раздают: 2 [ 0 KB/s ]
Размер: 4.07 GB | Добавлен: 3 года 10 мес. назад | Торрент скачан:181 раз
Скачать  

12-12-2016 14:41 Детективное агентство Дирка Джентли Скачать торрент  


Детективное агентство Дирка Джентли / Dirk Gently's Holistic Detective Agency

Год выпуска: 2016
Страна: США, Великобритания
Жанр: фантастика, комедия
Продолжительность: 1x~ 00:50:00
Озвучание: Профессиональное (многоголосое закадровое) (AlexFilm)

Режиссеры: Пако Кабесас, Дин Паризо, Майкл Патрик Джэнн

В ролях: Элайджа Вуд, Кристиан Бако, Сэмюэл Барнетт, Нил Браун мл., Аарон Дуглас, Фиона Дуриф, Майкл Эклунд, Джейд Эшете, Мфо Коахо, Ханна Маркс и др.

Описание: Сериал, рассказывающий о приключениях частного детектива Джентли и его невольного помощника Тодда. Каждый сезон они расследуют некую большую, казалось бы, совершенно безумную тайну и сталкиваются со странными и временами опасными персонажами. В каждой серии они приближаются к разгадке на несколько шагов, хотя их расследование страдает от недостатка логики.
Релиз:
Перевод: Константин Кривоногов
Монтаж и сведение звука: Михаил Шорыгин
Роли озвучивали:Таисия Тришина
Екатерина Муравицкая
Станислав Черсков
Дмитрий Лунёв
Владимир Курдов
Михаил Суслов



Качество: WEB-DLRip
Формат: AVI
Видео: 720x400 (1.80:1), 23.976 fps, XviD ~1400 kbps avg, 0.20 bit/pixel
Аудио Rus: 48 kHz, MPEG Layer 3, 2 ch, ~128.00 kbps avg
Аудио Eng: 48 kHz, MPEG Layer 3, 2 ch, ~128.00 kbps avg
Субтитры: нет
Видео
Идентификатор : 0
Формат : MPEG-4 Visual
Профиль формата : Advanced Simple@L5
Параметр BVOP формата : Нет
Параметр QPel формата : Нет
Параметр GMC формата : Без точки перехода
Параметр матрицы формата : Default (MPEG)
Идентификатор кодека : XVID
Идентификатор кодека/Подсказка : XviD
Продолжительность : 53 м. 43 с.
Битрейт : 1403 Кбит/сек
Ширина : 720 пикселей
Высота : 400 пикселей
Соотношение сторон : 16:9
Частота кадров : 23,976 (23976/1000) кадра/сек
Цветовое пространство : YUV
Субдискретизация насыщенности : 4:2:0
Битовая глубина : 8 бит
Тип развёртки : Прогрессивная
Метод сжатия : С потерями
Бит/(Пиксели*Кадры) : 0.203
Размер потока : 539 Мбайт (84%)
Библиотека кодирования : XviD 73
Аудио #1
Идентификатор : 1
Формат : MPEG Audio
Версия формата : Version 1
Профиль формата : Layer 3
Режим : Joint stereo
Расширение режима : MS Stereo
Идентификатор кодека : 55
Идентификатор кодека/Подсказка : MP3
Продолжительность : 53 м. 43 с.
Вид битрейта : Постоянный
Битрейт : 128 Кбит/сек
Каналы : 2 канала
Частота : 48,0 КГц
Метод сжатия : С потерями
Размер потока : 49,2 Мбайт (8%)
Выравнивание : Соединение по промежуткам
Продолжительность промежутка : 42 мс. (1,00 видеокадр)
Время предзагрузки промежутка : 504 мс.
Заголовок : Russian (AlexFilm)
Библиотека кодирования : LAME3.99r
Настройки программы : -m j -V 4 -q 3 -lowpass 18 -b 128
Аудио #2
Идентификатор : 2
Формат : MPEG Audio
Версия формата : Version 1
Профиль формата : Layer 3
Режим : Joint stereo
Расширение режима : MS Stereo
Идентификатор кодека : 55
Идентификатор кодека/Подсказка : MP3
Продолжительность : 53 м. 43 с.
Вид битрейта : Постоянный
Битрейт : 128 Кбит/сек
Каналы : 2 канала
Частота : 48,0 КГц
Метод сжатия : С потерями
Размер потока : 49,2 Мбайт (8%)
Выравнивание : Соединение по промежуткам
Продолжительность промежутка : 42 мс. (1,00 видеокадр)
Время предзагрузки промежутка : 504 мс.
Заголовок : English
Библиотека кодирования : LAME3.90.3
Внимание! Раздача ведётся путём добавления новых серий; при каждом добавлении создаётся новый торрент. Чтобы начать докачку новой серии, пользователям необходимо сделать следующее:
(1) остановить скачивание,
(2) удалить старый торрент у себя из клиента (старые серии удалять не надо),
(3) скачать новый торрент и запустить его у себя в клиенте вместо старого, при этом указать клиенту путь в старую папку куда и должно происходить скачивание новых серий.
Ваш клиент при этом должен произвести хеширование (проверку) старой папки (если не производит сам - помогите ему сделать это), и будет докачивать только те серии которых у вас ещё нет. Старые серии при этом не удаляются, а продолжают раздаваться!
Eсли вы уже удалили старые серии, то предотвратить повторную закачку старых серий можно, отжав галочку в соответствующих местах при запуске нового торрента. По возможности, желательно не удалять старые серии как можно дольше чтобы релизёр не столько продолжал раздавать старые серии, а смог сконцентрироваться на новых.
pb.wtf



Скачать Детективное агентство Дирка Джентли через торрент http://i85.fastpic.ru/big/2016/1212/27/7802c408b1f8650b1ead38a551e0ca27.png Скачать фильм Детективное агентство Дирка Джентли через торрент бесплантно в хорошем качестве Описание: Сериал, рассказывающий о приключениях частного детектива Джентли и его невольного помощника Тодда. Каждый сезон они расследуют ... 10 10 9
Торрент: Зарегистрирован [2017-01-03 07:58] · скачан: 181 раз
Статус: √ проверено
Размер: 4.07 GB
Как cкачать? Как скачать Детективное агентство Дирка Джентли через торрент | qTorrent



Последний раз редактировалось: killermax2013 (2017-01-03 07:58), всего редактировалось 3 раз(а)

28-11-2019 20:33  

Отключить всю рекламу на сайте

03-01-2017 11:05 Детективное агентство Дирка Джентли Скачать торрент  

Сериал огонь просто.pb.wtf



03-01-2017 17:54 Детективное агентство Дирка Джентли Скачать торрент  

Burbon писал(а):

Сериал огонь просто.

Посмотрим. Потом отпишусь.pb.wtf



13-01-2017 19:28 Детективное агентство Дирка Джентли Скачать торрент  

2-й сезон октябрь 2017 ?pb.wtf



    Дорогой пользователь! Огромная просьба, поблагодарите релизера, оцените раздачу и оставьте свои комментарий, если Вы скачали Детективное агентство Дирка Джентли через торрент бесплатно! Внесите свою лепту в развитие PiratBit!
    Комментировать посты могут только пользователи прошедшие не сложную регистрацию
    Показать сообщения:    

    Детективное агентство Дирка Джентли через торрент
    Скачать бесплатно Детективное агентство Дирка Джентли
    Детективное агентство Дирка Джентли скачать торрент
    Детективное агентство Дирка Джентли смотреть онлайн
    Cкачать фильм Детективное агентство Дирка Джентли бесплатно
    Детективное агентство Дирка Джентли скачать торрент в хорошем качестве
    Детективное агентство Дирка Джентли смотреть онлайн бесплатно в хорошем качестве


    Вы не можете начинать темы
    Вы не можете отвечать на сообщения
    Вы не можете редактировать свои сообщения
    Вы не можете удалять свои сообщения
    Вы не можете голосовать в опросах
    Вы не можете прикреплять файлы к сообщениям
    Вы можете скачивать файлы