Ссылка на приватное зеркало нашего сайта всего за 1$. Внимание количество ограничено!!!

2 сезон

iTunes

1 сезон

1

iTunes

iTunes

iTunes

1 сезон

RePack

30

ИГРА 18+

pack

ВАЖНО

!!Акция!!

Alien_RageХит недели

RePack

MK11
pack

Забери бонус

RePack

jed

!!Акция!!

Alien_Rage

RePack

fifa19

RePack

Assassins Creed: Odyssey

RePack

NEED FOR SPEED™ PAYBACK

4 сезон

9 сезон

Бесстыжие 9 сезон

Все сериалы

все сериалы на PB.wtf

RePack

FAR CRY 5
  

Шелест / Серии: 1-16 из 16 (Дмитрий Коробкин) [2016, боевик, криминал, SATRip-AVC] pb.wtf

Шелест через торрент pb.wtf

Размер: 7.38 GB | Добавлен: 3 года 10 мес. назад | Торрент скачан:388 раз
Скачать  

12-12-2016 16:26 Шелест Скачать торрент  

Шелест

Год выпуска: 2016
Производство: Россия, Централ Партнершип Продакшн,"НТВ-Кино" по заказу НТВ
Жанр: боевик, криминал
Продолжительность: 00:43:00
Субтитры: нет



Режиссёр: Дмитрий Коробкин



В ролях: Владимир Зайцев, Сергей Чирков, Олег Тактаров, Елена Корикова, Юрий Ваксман, Константин Федоров (II), Юрий Архангельский, Ольга Абрамова, Юлия Мельникова, Александр Ивашкевич, Владимир Гусев (II), Владислав Дунаев, Роман Гредин, Александр Сергеев (IV), Дмитрий Калистратов, Татьяна Демидова (IV), Светлана Чуйкина, Николай Бутенин, Тимур Бадалбейли, Андрей Багиров


Описание: Подполковник уголовного розыска Павел Шелестов или просто Шелест возглавляет отдел по раскрытию особо тяжких преступлений. В его ведении громкие дела об ограблении банков, инкассаторов, заказные убийства и похищения людей. Павел следует принципу Глеба Жеглова «Вор должен сидеть в тюрьме» и иногда действует незаконно, чтобы найти и обезвредить преступника.Когда в отдел Шелестова приходит молодой оперативник Денис Макеев (Сергей Чирков), в коллективе назревает конфликт. Современный Шарапов-Макеев выступает за правду и справедливость, что противоречит правилам работы Шелеста. Подполковник пытается наладить работу своих сотрудников, но его ждёт новый удар. В ресторане во время праздника начинается перестрелка. Неизвестные убивают шестерых сотрудников УгРо, и отдел собственной безопасности пытается выставить виновником трагедии Шелеста.



Релиз от:

Качество: SATRip-AVC
Формат: MKV
Видео кодек: H.264
Аудио кодек: AC3
Видео: MPEG4 Video (H264), 720x400, 25fps,1300 Kbps,bit/pixel 0.181
Аудио: AC3 48000Hz, stereo, 192kbps,2 ch


Общее
Уникальный идентификатор : 179106167711895435154993423469169546575 (0x86BE97D9784EF924B4F342BFB26B154F)
Полное имя : F:\Шелест\01 серия_Шелест_rip by_Aleksan55.mkv
Формат : Matroska
Версия формата : Version 2
Размер файла : 460 Мбайт
Продолжительность : 43 м.
Общий поток : 1494 Кбит/сек
Дата кодирования : UTC 2016-12-12 13:28:58
Программа кодирования : mkvmerge v7.8.0 ('River Man') 32bit built on Apr 3 2015 12:11:22
Библиотека кодирования : libebml v1.3.1 + libmatroska v1.4.2

Видео
Идентификатор : 1
Формат : AVC
Формат/Информация : Advanced Video Codec
Профиль формата : High@L3.1
Параметр CABAC формата : Да
Параметр ReFrames формата : 14 кадров
Идентификатор кодека : V_MPEG4/ISO/AVC
Продолжительность : 43 м.
Битрейт : 1300 Кбит/сек
Ширина : 720 пикселей
Высота : 400 пикселей
Соотношение сторон : 16:9
Режим частоты кадров : Постоянный
Частота кадров : 25,000 кадров/сек
Цветовое пространство : YUV
Субдискретизация насыщенности : 4:2:0
Битовая глубина : 8 бит
Тип развёртки : Прогрессивная
Бит/(Пиксели*Кадры) : 0.181
Размер потока : 391 Мбайт (85%)
Библиотека кодирования : x264 core 148 r2638 7599210
Настройки программы : cabac=1 / ref=14 / deblock=1:-1:-1 / analyse=0x3:0x133 / me=umh / subme=9 / psy=1 / psy_rd=1.00:0.15 / mixed_ref=0 / me_range=32 / chroma_me=1 / trellis=2 / 8x8dct=1 / cqm=0 / deadzone=21,11 / fast_pskip=0 / chroma_qp_offset=-3 / threads=2 / lookahead_threads=3 / sliced_threads=0 / nr=0 / decimate=0 / interlaced=0 / bluray_compat=0 / constrained_intra=0 / bframes=14 / b_pyramid=2 / b_adapt=1 / b_bias=0 / direct=3 / weightb=1 / open_gop=0 / weightp=2 / keyint=250 / keyint_min=25 / scenecut=40 / intra_refresh=0 / rc_lookahead=60 / rc=2pass / mbtree=1 / bitrate=1300 / ratetol=1.0 / qcomp=0.80 / qpmin=0 / qpmax=40 / qpstep=4 / cplxblur=20.0 / qblur=0.5 / ip_ratio=1.40 / aq=1:1.20
Default : Да
Forced : Нет
Цветовой диапазон : Limited
Основные цвета : BT.601 PAL
Характеристики трансфера : BT.470 System B, BT.470 System G
Коэффициенты матрицы : BT.601

Аудио
Идентификатор : 2
Формат : AC-3
Формат/Информация : Audio Coding 3
Расширение режима : CM (complete main)
Параметр Endianness формата : Big
Идентификатор кодека : A_AC3
Продолжительность : 43 м.
Вид битрейта : Постоянный
Битрейт : 192 Кбит/сек
Каналы : 2 канала
Расположение каналов : Front: L R
Частота : 48,0 КГц
Метод сжатия : С потерями
Размер потока : 59,1 Мбайт (13%)
Default : Да
Forced : Нет
Внимание! Раздача ведётся путём добавления новых серий; при каждом добавлении создаётся новый торрент.
Чтобы начать докачку новой серии, пользователям необходимо сделать следующее:
1. Остановить скачивание;
2. Удалить старый торрент у себя из клиента (старые серии удалять не надо);
3. Скачать новый торрент и запустить его у себя в клиенте вместо старого, при этом указать клиенту путь в старую папку куда и должно происходить скачивание новых серий. Ваш клиент при этом должен произвести хеширование (проверку) старой папки и будет докачивать только те серии, которых у вас ещё нет. Старые серии при этом не удаляются, а продолжают раздаваться! Eсли вы уже удалили старые серии, то предотвратить повторную закачку старых серий можно, отжав галочку в соответствующих местах при запуске нового торрента.


Рекламы нет.Добавлены 15-16 серия.pb.wtf



Скачать Шелест через торрент http://i069.radikal.ru/1612/12/4f28548e86cc.jpg Скачать фильм Шелест через торрент бесплантно в хорошем качестве Описание: Подполковник уголовного розыска Павел Шелестов или просто Шелест возглавляет отдел по раскрытию особо тяжких преступлений. В его ... 9.3 10 21
Info! Серебряная раздача, засчитывается только 50% скачанного.
Торрент: Зарегистрирован [2016-12-15 21:57] · скачан: 388 раз
Статус: √ проверено
Размер: 7.38 GB
Как cкачать? Как скачать Шелест через торрент | qTorrent

% Раздел Тема Автор DL S | L
Наши сериалы [ 10.82 GB ] Шелест / Сезон: 1 / Серии: 1-16 из 16 [2016 HDTVRip-AVC] bober100 Скачать
1 | 0
Наши сериалы [ 10.63 GB ] Шелест. Большой передел / Сезон 2 / Серия 1-16 из 16 [2018 SATRip] oleg8 Скачать
1 | 0
Наши сериалы [ 10.66 GB ] Шелест. Большой передел / Сезон: 2 / Серии: 1-16 из 16 [2018 SATRip-AVC] aleksan55 Скачать
1 | 0
Наши сериалы [ 20.24 GB ] Шелест. Большой передел / Сезон: 2 / Серии: 1-16 из 16 [2018 WEBRip 720p] bober100 Скачать
1 | 0
Наши сериалы [ 12.02 GB ] Шелест. Большой передел / Сезон: 2 / Серии: 1-16 из 16 [2018 WEB-DLRip-AVC] bober100 Скачать
1 | 0
Наши сериалы [ 9.33 GB ] Шелест. Большой передел / Сезон: 2 / Серии: 1-16 из 16 [2018 WEB-DLRip] bober100 Скачать
1 | 0
Наши сериалы [ 33.74 GB ] Шелест. Большой передел / Сезон: 2 / Серии: 1-16 из 16 [2018 WEB-DL 1080p] bober100 Скачать
1 | 0

28-11-2019 20:33  

Отключить всю рекламу на сайте

21-12-2016 01:58 Шелест Скачать торрент  

как сериальчик?pb.wtf



    Дорогой пользователь! Огромная просьба, поблагодарите релизера, оцените раздачу и оставьте свои комментарий, если Вы скачали Шелест через торрент бесплатно! Внесите свою лепту в развитие PiratBit!
    Комментировать посты могут только пользователи прошедшие не сложную регистрацию
    Показать сообщения:    

    Шелест через торрент
    Скачать бесплатно Шелест
    Шелест скачать торрент
    Шелест смотреть онлайн
    Cкачать фильм Шелест бесплатно
    Шелест скачать торрент в хорошем качестве
    Шелест смотреть онлайн бесплатно в хорошем качестве


    Вы не можете начинать темы
    Вы не можете отвечать на сообщения
    Вы не можете редактировать свои сообщения
    Вы не можете удалять свои сообщения
    Вы не можете голосовать в опросах
    Вы не можете прикреплять файлы к сообщениям
    Вы можете скачивать файлы