MEGA SALE -50% FORZA HORIZON 4 ULTIMATE+ВСЕ DLC+ОНЛАЙН всего за 599р. 299 руб. (супер цена). Внимание количество ограничено!!!

iTunes

1+1

iTunes

мы

iTunes

1

iTunes

Чернобыль

iTunes

Ральф против интернета

Лицензия

ПШазам

Лицензия

Игра престолов

Лицензия

30
pack

ВАЖНО

!!Акция!!

Alien_RageХит недели

RePack

Resident Evil 21

ИГРА 18+

pack

RePack

Metro:Exodus

!!Акция!!

Alien_Rage

RePack

fifa19

RePack

Assassins Creed: Odyssey

RePack

NEED FOR SPEED™ PAYBACK

3 сезон

9 сезон

Бесстыжие 9 сезон

Все сериалы

все сериалы на PB.wtf

RePack

FAR CRY 5
Ребята, катастрофически не хватает 7730р. для оплаты серверов за ИЮЛЬ (всвязи с блокировками трафик упал в 3 раза), 1-2р., выручайте.
  

Погоня / The Chase (Артур Пенн) [1966 г., триллер, драма, криминал, BDRip] DUB, MVO, AVO pb.wtf

Погоня через торрент pb.wtf

Размер: 2.18 GB | Добавлен: 2 года 8 мес. назад | Торрент скачан:33 раза
Скачать  

13-12-2016 06:37 Погоня Скачать торрент  

Погоня / The Chase
Год выпуска: 1966
Страна: США
Жанр: триллер, драма, криминал
Продолжительность: 02:13:48
Перевод: Дублированный, профессиональный многоголосый, авторский

Режиссер: Артур Пенн

rating

В ролях: Марлон Брандо, Джейн Фонда, Роберт Редфорд, Э. Г. Маршалл, Джеймс Фокс, Энджи Дикинсон, Джэнис Рул, Роберт Дювалл, Марта Хайер, Ричард Брэдфорд, Мириам Хопкинс, Дайана Хайленд, Генри Халл, Джоселин Брандо, Кэтрин Уолш, Лори Мартин, Марк Ситон, Пол Уильямс, Клифтон Джеймс, Стив Ихнэт, Морис Мэнсон, Брюс Кэбот, Малкольм Аттербери, Нидия Вестман, Джоэл Флюллен, Кен Ренар, Джеймс Андерсон, Стив Уитэйкер, Памела Каррен, Леода Ричардс

Описание: Штат Техас. В тихом провинциальном городке следит за порядком добропорядочный шериф Колдер. Однажды покой городка нарушает известие о том, что из тюрьмы бежал Баббер, который желает свести старые счеты кое с кем из жителей города. Коррумпированные отцы города испугались появления беглеца, ведь он слишком много знает об их грязном прошлом.

Качество: BDRip
Формат: AVI
Видео кодек: XviD
Аудио кодек: AC3
Видео: XviD, 1737 Кбит/с, 720x304, 23.976 кадр/с
Аудио#1: AC3, 2 ch, 192 Кбит/с, 48 kHz | Дублированный (Варус-Видео)
Аудио#2: AC3, 2 ch, 192 Кбит/с, 48 kHz | Профессиональный многоголосый (R5)
Аудио#3: AC3, 2 ch, 192 Кбит/с, 48 kHz | Авторский (А.Гаврилов)
Релиз от: Koenig
Общее
Полное имя : The.Chase.1966.BDRip.avi
Формат : AVI
Формат/Информация : Audio Video Interleave
Профиль формата : OpenDML
Размер файла : 2,18 Гбайт
Продолжительность : 2 ч. 13 м.
Общий поток : 2337 Кбит/сек
Программа кодирования : VirtualDubMod 1.5.10.2 (build 2540/release)
Библиотека кодирования : VirtualDubMod build 2540/release

Видео
Идентификатор : 0
Формат : MPEG-4 Visual
Профиль формата : Advanced Simple@L5
Параметр BVOP формата : 1
Параметр QPel формата : Нет
Параметр GMC формата : Без точки перехода
Параметр матрицы формата : Выборочная
Идентификатор кодека : XVID
Идентификатор кодека/Подсказка : XviD
Продолжительность : 2 ч. 13 м.
Битрейт : 1737 Кбит/сек
Ширина : 720 пикселей
Высота : 304 пикселя
Соотношение сторон : 2,35:1
Частота кадров : 23,976 (24000/1001) кадра/сек
Частота кадров в оригинале : 23,976 (23976/1000) кадра/сек
Цветовое пространство : YUV
Субдискретизация насыщенности : 4:2:0
Битовая глубина : 8 бит
Тип развёртки : Прогрессивная
Метод сжатия : С потерями
Бит/(Пиксели*Кадры) : 0.331
Размер потока : 1,62 Гбайт (74%)
Библиотека кодирования : XviD 73

Аудио #1
Идентификатор : 1
Формат : AC-3
Формат/Информация : Audio Coding 3
Расширение режима : CM (complete main)
Параметр Endianness формата : Big
Идентификатор кодека : 2000
Продолжительность : 2 ч. 13 м.
Вид битрейта : Постоянный
Битрейт : 192 Кбит/сек
Каналы : 2 канала
Расположение каналов : Front: L R
Частота : 48,0 КГц
Частота кадров : 31,250 кадров/сек (1536 spf)
Битовая глубина : 16 бит
Метод сжатия : С потерями
Размер потока : 184 Мбайт (8%)
Выравнивание : Разделение по промежуткам
Продолжительность промежутка : 42 мс. (1,00 видеокадр)
Время предзагрузки промежутка : 500 мс.

Аудио #2
Идентификатор : 2
Формат : AC-3
Формат/Информация : Audio Coding 3
Расширение режима : CM (complete main)
Параметр Endianness формата : Big
Идентификатор кодека : 2000
Продолжительность : 2 ч. 13 м.
Вид битрейта : Постоянный
Битрейт : 192 Кбит/сек
Каналы : 2 канала
Расположение каналов : Front: L R
Частота : 48,0 КГц
Частота кадров : 31,250 кадров/сек (1536 spf)
Битовая глубина : 16 бит
Метод сжатия : С потерями
Размер потока : 184 Мбайт (8%)
Выравнивание : Разделение по промежуткам
Продолжительность промежутка : 42 мс. (1,00 видеокадр)
Время предзагрузки промежутка : 500 мс.

Аудио #3
Идентификатор : 3
Формат : AC-3
Формат/Информация : Audio Coding 3
Расширение режима : CM (complete main)
Параметр Endianness формата : Big
Идентификатор кодека : 2000
Продолжительность : 2 ч. 13 м.
Вид битрейта : Постоянный
Битрейт : 192 Кбит/сек
Каналы : 2 канала
Расположение каналов : Front: L R
Частота : 48,0 КГц
Частота кадров : 31,250 кадров/сек (1536 spf)
Битовая глубина : 16 бит
Метод сжатия : С потерями
Размер потока : 184 Мбайт (8%)
Выравнивание : Разделение по промежуткам
Продолжительность промежутка : 42 мс. (1,00 видеокадр)
Время предзагрузки промежутка : 500 мс.

pb.wtf



Скачать Погоня через торрент http://s017.radikal.ru/i420/1612/12/0f5113fb507b.jpg Скачать фильм Погоня через торрент бесплантно в хорошем качестве Описание: Штат Техас. В тихом провинциальном городке следит за порядком добропорядочный шериф Колдер. Однажды покой городка нарушает ... 10 10 1
Info! Золотая раздача, скачанное не засчитывается.
Торрент: Зарегистрирован [2016-12-13 06:37] · скачан: 33 раз
Статус: √ проверено
Размер: 2.18 GB
Как cкачать? Как скачать Погоня через торрент | qTorrent

% Раздел Тема Автор DL S | L
Фильмы [HD 720p, 1080p] (Хороший звук DUB, MVO) [ 16.58 GB ] Погоня / The Chase [1966 BDRip 1080p by msltel] DUB MVO AVO msltel Скачать
1 | 0
Фильмы [HD 720p, 1080p] (Хороший звук DUB, MVO) [ 5.21 GB ] Погоня / The Chase [1966 BDRip 720p by msltel] DUB MVO AVO msltel Скачать
1 | 0


>> Регистрируемся здесь <<






Отзывы и комментарии о схеме читаем и пишем здесь: ---> Отзывы и комментарии о схеме

Новые благодарочки в телеграм довольных пользователей:
скриншот   скриншот   скриншот   скриншот   скриншот

28-07-2018 19:32 Погоня Скачать торрент  

* Коррумпированные отцы города испугались появления беглеца, ведь он слишком много знает об их грязном прошлом*. И тут за дело берутся безответственные пьяные ублюдки с чешущимися гениталиями, ошалевшие от безнаказанности неравнодушные гражданские активисты с пылающими гневом сердцами и своими злобными тупыми выходками портят все, до чего могут дотянуться, нарушают законы не на один срок из-за преобладания эмоций над мышлением и законопослушностью допускают ряд просчетов, ведущих к непредсказуемым тяжелым последствиям. Отличный фильм, Брандо великолепен, остальные актеры тоже хороши в своих ролях. Качество рипа и перевод хорошие. Спасибо за раздачу.pb.wtf



    Дорогой пользователь! Огромная просьба, поблагодарите релизера, оцените раздачу и оставьте свои комментарий, если Вы скачали Погоня через торрент бесплатно! Внесите свою лепту в развитие PiratBit!
    Комментировать посты могут только пользователи прошедшие не сложную регистрацию
    Показать сообщения:    

    Погоня через торрент
    Скачать бесплатно Погоня
    Погоня скачать торрент
    Погоня смотреть онлайн
    Cкачать фильм Погоня бесплатно
    Погоня скачать торрент в хорошем качестве
    Погоня смотреть онлайн бесплатно в хорошем качестве


    Вы не можете начинать темы
    Вы не можете отвечать на сообщения
    Вы не можете редактировать свои сообщения
    Вы не можете удалять свои сообщения
    Вы не можете голосовать в опросах
    Вы не можете прикреплять файлы к сообщениям
    Вы можете скачивать файлы