Ссылка на приватное зеркало нашего сайта всего за 1$. Внимание количество ограничено!!!

2 сезон

iTunes

1 сезон

1

2 сезон

2 сезон

iTunes

1 сезон

RePack

30

Ultimate

ВАЖНО

ИГРА 18+

pack

RePack

MK11
pack

Забери бонус

RePack

jed

!!Акция!!

Alien_Rage

RePack

fifa19

RePack

Assassins Creed: Odyssey

RePack

NEED FOR SPEED™ PAYBACK

4 сезон

9 сезон

Бесстыжие 9 сезон

Все сериалы

все сериалы на PB.wtf

RePack

FAR CRY 5
  

Ясновидец / Shut Eye / Сезон 1 / Серии 1-10 из 10 (Йохан Ренк) [2016, Комедия, драма, WEBRip] [1080p] [MVO] (LostFilm) pb.wtf

Ясновидец через торрент pb.wtf

Размер: 16.8 GB | Добавлен: 3 года 10 мес. назад | Торрент скачан:80 раз
Скачать  

13-12-2016 09:03 Ясновидец Скачать торрент  

Ясновидец / Shut Eye
Год выпуска: 2016
Жанр: Комедия, драма
Выпущено: США, Gran Via, TriStar Television
Продолжительность: ~ 00:45:00
Перевод: Профессиональный (многоголосый) (LostFilm)
Субтитры: Английские

Режиссер: Йохан Ренк

В ролях: Джеффри Донован, Мэл Харрис, Изабелла Росселлини, Энгус Сэмпсон, Дилан Шмид, КаДи Стрикленд, Дэвид Зайас, Эммануэль Шрики, Сьюзэн Миснер, Хавана Гуппи

О фильме: Чарли Хэйвфорд – неудачливый экстрасенс. Ему не повезло в мире магии, зато он прижился в области криминала. Его подобрал авторитет по имени Романи. И принудил Чарли присматривать за несколькими магическими салонами в Эл-Эй. У преступных деятелей в сфере экстрасенсорики свой интерес. Сначала они, конечно, хотят зарабатывать на доверчивых лохах. Вот только однажды Хэйвфорд, кажется, действительно связался с параллельным миром. Это произошло после того, как ему прилетелом кувшином по голове. Во что ему теперь верить – мафию или магию?



Файл
Качество: WEBRip 1080p
Формат: MKV
Видео: MPEG-4 AVC, ~ 4500 Кбит/с, 1920x1080, 23.976 fps
Аудио: 48.0 KHz, AC3, 2 ch, 384 Кбит/с [MVO]
Аудио: 48.0 KHz, AC3, 2 ch, 192 Кбит/с [ENG]
General
Unique ID : 186773463176915734737570918855807003612 (0x8C8342B3BA63840B89DCE8E79496EBDC)
Complete name : E:\Shut Eye (Season 01) LostFilm 1080\Shut.Eye.S01E01.1080p.HULU.WEBRip.Rus.Eng.LostFilm.mkv
Format : Matroska
Format version : Version 2
File size : 1.73 GiB
Duration : 46mn 19s
Overall bit rate : 5 351 Kbps
Encoded date : UTC 2016-12-13 00:44:12
Writing application : mkvmerge v7.8.0 ('River Man') 32bit built on Apr 3 2015 12:11:22
Writing library : libebml v1.3.1 + libmatroska v1.4.2

Video
ID : 1
Format : AVC
Format/Info : Advanced Video Codec
Format profile : High@L4
Format settings, CABAC : Yes
Format settings, ReFrames : 4 frames
Codec ID : V_MPEG4/ISO/AVC
Duration : 46mn 19s
Bit rate : 4 668 Kbps
Width : 1 920 pixels
Height : 1 080 pixels
Display aspect ratio : 16:9
Frame rate mode : Constant
Frame rate : 23.976 fps
Color space : YUV
Chroma subsampling : 4:2:0
Bit depth : 8 bits
Scan type : Progressive
Bits/(Pixel*Frame) : 0.094
Stream size : 1.51 GiB (87%)
Default : Yes
Forced : No

Audio #1
ID : 2
Format : AC-3
Format/Info : Audio Coding 3
Mode extension : CM (complete main)
Format settings, Endianness : Big
Codec ID : A_AC3
Duration : 46mn 19s
Bit rate mode : Constant
Bit rate : 384 Kbps
Channel(s) : 2 channels
Channel positions : Front: L R
Sampling rate : 48.0 KHz
Compression mode : Lossy
Stream size : 127 MiB (7%)
Language : Russian
Default : Yes
Forced : No

Audio #2
ID : 3
Format : AC-3
Format/Info : Audio Coding 3
Mode extension : CM (complete main)
Format settings, Endianness : Big
Codec ID : A_AC3
Duration : 46mn 19s
Bit rate mode : Constant
Bit rate : 192 Kbps
Channel(s) : 2 channels
Channel positions : Front: L R
Sampling rate : 48.0 KHz
Compression mode : Lossy
Stream size : 63.6 MiB (4%)
Language : English
Default : No
Forced : No

Text
ID : 4
Format : UTF-8
Codec ID : S_TEXT/UTF8
Codec ID/Info : UTF-8 Plain Text
Language : English
Default : No
Forced : No
Внимание! Раздача ведётся путём добавления новых серий; при каждом добавлении создаётся новый торрент. Чтобы начать докачку новой серии, пользователям необходимо сделать следующее:
(1) остановить скачивание,
(2) удалить старый торрент у себя из клиента (старые серии удалять не надо),
(3) скачать новый торрент и запустить его у себя в клиенте вместо старого, при этом указать клиенту путь в старую папку куда и должно происходить скачивание новых серий.
Ваш клиент при этом должен произвести хеширование (проверку) старой папки (если не производит сам - помогите ему сделать это), и будет докачивать только те серии которых у вас ещё нет. Старые серии при этом не удаляются, а продолжают раздаваться!
Eсли вы уже удалили старые серии, то предотвратить повторную закачку старых серий можно, отжав галочку в соответствующих местах при запуске нового торрента. По возможности, желательно не удалять старые серии как можно дольше чтобы релизёр не столько продолжал раздавать старые серии, а смог сконцентрироваться на новых.
pb.wtf



Скачать Ясновидец через торрент http://i83.fastpic.ru/big/2016/1212/76/51bf71aeadebc5a8858f466d8b5ebd76.jpg Скачать фильм Ясновидец через торрент бесплантно в хорошем качестве О фильме: Чарли Хэйвфорд – неудачливый экстрасенс. Ему не повезло в мире магии, зато он прижился в области криминала. Его подобрал ... 9.3 10 12
Info! Золотая раздача, скачанное не засчитывается.
Торрент: Зарегистрирован [2017-01-05 17:38] · скачан: 80 раз
Статус: √ проверено
Размер: 16.8 GB
Как cкачать? Как скачать Ясновидец через торрент | qTorrent

% Раздел Тема Автор DL S | L
Зарубежные сериалы [ 16.2 GB ] Ясновидец / Shut Eye / Сезон: 1 / Серии: 1-10 из 10 [2016 WEBRip 1080p] MVO [Jaskier] bober100 Скачать
1 | 0
Зарубежные сериалы [ 7.45 GB ] Ясновидец / Shut Eye / Сезон: 1 / Серии: 1-10 из 10 [2016 WEBRip 720p] MVO [Jaskier] bober100 Скачать
1 | 0
Зарубежные сериалы [ 5.75 GB ] Ясновидец / Shut Eye / Сезон 2 / Серии 1-10 из 10 [2017 WEBRip] [MVO] killermax2013 Скачать
2 | 0
Зарубежные сериалы [ 20.25 GB ] Ясновидец / Shut Eye / Сезон 2 / Серии 1-10 из 10 [2017 WEBRip 1080p] [MVO] killermax2013 Скачать
1 | 0
Зарубежные сериалы [ 5.72 GB ] Ясновидец / Shut Eye / Сезон 2 / Серии 1-10 из 10 [2017 WEBRip] [MVO] killermax2013 Скачать
1 | 0
Зарубежные сериалы [ 5.37 GB ] Ясновидец / Shut Eye / Сезон 2 / Серии 1-10 из 10 [2017 WEBRip] MVO [Gears Media] bober100 Скачать
1 | 0
Зарубежные сериалы [ 9.69 GB ] Ясновидящий / Ясновидец / Shut Eye / Сезон: 2 / Серии 1-10 из 10 [2017 WEBRip 720p] MVO [BaibaKo] GEKADOL Скачать
1 | 0


Последний раз редактировалось: killermax2013 (2017-01-05 17:38), всего редактировалось 2 раз(а)

28-11-2019 20:33  

Отключить всю рекламу на сайте

15-12-2016 17:11 Ясновидец Скачать торрент  

+3pb.wtf



20-12-2016 10:00 Ясновидец Скачать торрент  

+4pb.wtf



20-12-2016 10:40 Ясновидец Скачать торрент  

Сериал интересный, посмотрел с удовольствием!
Автору темы спасибочки !pb.wtf



20-12-2016 10:49 Ясновидец Скачать торрент  

Chuvackk писал(а):

Сериал интересный, посмотрел с удовольствием!
Автору темы спасибочки !

4-я серия хардкор конечноpb.wtf



05-01-2017 17:39 Ясновидец Скачать торрент  

Полный сезонpb.wtf



    Дорогой пользователь! Огромная просьба, поблагодарите релизера, оцените раздачу и оставьте свои комментарий, если Вы скачали Ясновидец через торрент бесплатно! Внесите свою лепту в развитие PiratBit!
    Комментировать посты могут только пользователи прошедшие не сложную регистрацию
    Показать сообщения:    

    Ясновидец через торрент
    Скачать бесплатно Ясновидец
    Ясновидец скачать торрент
    Ясновидец смотреть онлайн
    Cкачать фильм Ясновидец бесплатно
    Ясновидец скачать торрент в хорошем качестве
    Ясновидец смотреть онлайн бесплатно в хорошем качестве


    Вы не можете начинать темы
    Вы не можете отвечать на сообщения
    Вы не можете редактировать свои сообщения
    Вы не можете удалять свои сообщения
    Вы не можете голосовать в опросах
    Вы не можете прикреплять файлы к сообщениям
    Вы можете скачивать файлы