Ссылка на приватное зеркало нашего сайта всего за 1$. Внимание количество ограничено!!!

2 сезон

iTunes

1 сезон

1

iTunes

iTunes

iTunes

1 сезон

RePack

30

ИГРА 18+

pack

ВАЖНО

!!Акция!!

Alien_RageХит недели

RePack

MK11
pack

Забери бонус

RePack

jed

!!Акция!!

Alien_Rage

RePack

fifa19

RePack

Assassins Creed: Odyssey

RePack

NEED FOR SPEED™ PAYBACK

4 сезон

9 сезон

Бесстыжие 9 сезон

Все сериалы

все сериалы на PB.wtf

RePack

FAR CRY 5
  

Гринч – похититель Рождества / How the Grinch Stole Christmas (Рон Ховард ) (15th Anniversary Remastered Edition) [2000, фэнтези, комедия, семейный, BDRip 720p от _denis_100 / NNNB] DUB + 3xMVO + AVO + Original + Sub (2xRus,2xEng) pb.wtf

Гринч – похититель Рождества через торрент pb.wtf

Размер: 7.76 GB | Добавлен: 3 года 10 мес. назад | Торрент скачан:244 раза
Скачать  

13-12-2016 10:50 Гринч – похититель Рождества Скачать торрент  

Гринч – похититель Рождества / How the Grinch Stole Christmas
«All Whos beware: He's mean and green!»


Год выпуска: 2000
Страна: США, Германия
Жанр: фэнтези, комедия, семейный
Продолжительность: 01:44:56
Перевод: Дублированный, Профессиональный многоголосый, Авторский одноголосый
Субтитры: русские, русские (SDH), английские, английские (SDH)
Режиссер: Рон Ховард
В ролях:
Описание:
Жил-был в городе Ктограде человечек, и звали его - Гринч. Был он весь зеленый и волосатый, никто его не любил. Обиделся Гринч на ктовичей и ушел жить на одинокую, обдуваемую всеми ветрами гору. Сидел там в своей пещере и злился на весь свет. Больше всего Гринч ненавидел Рождество. В то время, как все население Ктограда веселилось от души, барометр и без того всегда плохого настроения Гринча показывал нечто ужасное.

PG - Рекомендуется присутствие родителей
Качество: BDRip 720p
Контейнер (Расширение): MKV
Видео: 1280x692, 7385 Кбит/сек, 23,976 кадр/сек, 0,348 Бит/[Пиксели*Кадры]
Аудио №1: русский / AC3 / 5.1 / 48 kHz / 448 kbps / |Дублированный|
Аудио №2: русский / AC3 / 5.1 / 48 kHz / 640 kbps / |Профессиональный многоголосый, Карусель#1|
Аудио №3: русский / AC3 / 5.1 / 48 kHz / 640 kbps / |Профессиональный многоголосый, Карусель#2|
Аудио №4: русский / AC3 / 2.0 / 48 kHz / 192 kbps / |Профессиональный многоголосый, Премьер-Видео|
Аудио №5: русский / AC3 / 5.1 / 48 kHz / 640 kbps / |Авторский одноголосый, Ю.Живов|
Аудио №6: английский / AC3 / 5.1 / 48 kHz / 640 kbps /
Навигация по главам (Чаптеры): естьАвтор рипа: Группа:
Format : Matroska
Format version : Version 2
File size : 7.76 GiB
Duration : 1 h 44 min
Overall bit rate : 10.6 Mb/s
Movie name : How the Grinch Stole Christmas.2000.BDRip.720p.[denis100].Remastered
Encoded date : UTC 2016-12-13 10:15:26
Writing application : mkvmerge v5.8.0 ('No Sleep / Pillow') built on Sep 2 2012 15:37:04
Writing library : libebml v1.2.3 + libmatroska v1.3.0

Video
ID : 1
Format : AVC
Format/Info : Advanced Video Codec
Format profile : High@L4.1
Format settings, CABAC : Yes
Format settings, ReFrames : 9 frames
Codec ID : V_MPEG4/ISO/AVC
Duration : 1 h 44 min
Bit rate : 7 385 kb/s
Width : 1 280 pixels
Height : 692 pixels
Display aspect ratio : 1.85:1
Frame rate mode : Constant
Frame rate : 23.976 (24000/1001) FPS
Color space : YUV
Chroma subsampling : 4:2:0
Bit depth : 8 bits
Scan type : Progressive
Bits/(Pixel*Frame) : 0.348
Stream size : 5.26 GiB (68%)
Title : How the Grinch Stole Christmas.2000.BDRip.720p.[denis100].Remastered
Writing library : x264 core 148 r2744 b97ae06
Encoding settings : cabac=1 / ref=9 / deblock=1:-3:-3 / analyse=0x3:0x133 / me=umh / subme=11 / psy=1 / psy_rd=1.00:0.10 / mixed_ref=1 / me_range=32 / chroma_me=1 / trellis=2 / 8x8dct=1 / cqm=0 / deadzone=21,11 / fast_pskip=0 / chroma_qp_offset=-3 / threads=6 / lookahead_threads=1 / sliced_threads=0 / nr=0 / decimate=1 / interlaced=0 / bluray_compat=0 / constrained_intra=0 / bframes=10 / b_pyramid=2 / b_adapt=2 / b_bias=0 / direct=3 / weightb=1 / open_gop=0 / weightp=2 / keyint=240 / keyint_min=23 / scenecut=40 / intra_refresh=0 / rc=2pass / mbtree=0 / bitrate=7385 / ratetol=1.0 / qcomp=0.60 / qpmin=0 / qpmax=69 / qpstep=4 / cplxblur=20.0 / qblur=0.5 / ip_ratio=1.40 / pb_ratio=1.30 / aq=1:0.85
Language : English
Default : Yes
Forced : No

Audio #1
ID : 2
Format : AC-3
Format/Info : Audio Coding 3
Mode extension : CM (complete main)
Format settings, Endianness : Big
Codec ID : A_AC3
Duration : 1 h 44 min
Bit rate mode : Constant
Bit rate : 448 kb/s
Channel(s) : 6 channels
Channel positions : Front: L C R, Side: L R, LFE
Sampling rate : 48.0 kHz
Frame rate : 31.250 FPS (1536 spf)
Compression mode : Lossy
Stream size : 336 MiB (4%)
Title : Дубляж
Language : Russian
Default : Yes
Forced : No

Audio #2
ID : 3
Format : AC-3
Format/Info : Audio Coding 3
Mode extension : CM (complete main)
Format settings, Endianness : Big
Codec ID : A_AC3
Duration : 1 h 44 min
Bit rate mode : Constant
Bit rate : 640 kb/s
Channel(s) : 6 channels
Channel positions : Front: L C R, Side: L R, LFE
Sampling rate : 48.0 kHz
Frame rate : 31.250 FPS (1536 spf)
Compression mode : Lossy
Stream size : 480 MiB (6%)
Title : MVO, Карусель#1
Language : Russian
Default : No
Forced : No

Audio #3
ID : 4
Format : AC-3
Format/Info : Audio Coding 3
Mode extension : CM (complete main)
Format settings, Endianness : Big
Codec ID : A_AC3
Duration : 1 h 44 min
Bit rate mode : Constant
Bit rate : 640 kb/s
Channel(s) : 6 channels
Channel positions : Front: L C R, Side: L R, LFE
Sampling rate : 48.0 kHz
Frame rate : 31.250 FPS (1536 spf)
Compression mode : Lossy
Stream size : 480 MiB (6%)
Title : MVO, Карусель#2
Language : Russian
Default : No
Forced : No

Audio #4
ID : 5
Format : AC-3
Format/Info : Audio Coding 3
Mode extension : CM (complete main)
Format settings, Endianness : Big
Codec ID : A_AC3
Duration : 1 h 44 min
Bit rate mode : Constant
Bit rate : 192 kb/s
Channel(s) : 2 channels
Channel positions : Front: L R
Sampling rate : 48.0 kHz
Frame rate : 31.250 FPS (1536 spf)
Compression mode : Lossy
Stream size : 144 MiB (2%)
Title : MVO, Премьер-Видео
Language : Russian
Default : No
Forced : No

Audio #5
ID : 6
Format : AC-3
Format/Info : Audio Coding 3
Mode extension : CM (complete main)
Format settings, Endianness : Big
Codec ID : A_AC3
Duration : 1 h 44 min
Bit rate mode : Constant
Bit rate : 640 kb/s
Channel(s) : 6 channels
Channel positions : Front: L C R, Side: L R, LFE
Sampling rate : 48.0 kHz
Frame rate : 31.250 FPS (1536 spf)
Compression mode : Lossy
Stream size : 480 MiB (6%)
Title : AVO, Ю.Живов
Language : Russian
Default : No
Forced : No

Audio #6
ID : 7
Format : AC-3
Format/Info : Audio Coding 3
Mode extension : CM (complete main)
Format settings, Endianness : Big
Codec ID : A_AC3
Duration : 1 h 44 min
Bit rate mode : Constant
Bit rate : 640 kb/s
Channel(s) : 6 channels
Channel positions : Front: L C R, Side: L R, LFE
Sampling rate : 48.0 kHz
Frame rate : 31.250 FPS (1536 spf)
Compression mode : Lossy
Stream size : 480 MiB (6%)
Language : English
Default : No
Forced : No

Text #1
ID : 8
Format : UTF-8
Codec ID : S_TEXT/UTF8
Codec ID/Info : UTF-8 Plain Text
Language : Russian
Default : No
Forced : No

Text #2
ID : 9
Format : UTF-8
Codec ID : S_TEXT/UTF8
Codec ID/Info : UTF-8 Plain Text
Title : SDH
Language : Russian
Default : No
Forced : No

Text #3
ID : 10
Format : UTF-8
Codec ID : S_TEXT/UTF8
Codec ID/Info : UTF-8 Plain Text
Language : English
Default : No
Forced : No

Text #4
ID : 11
Format : UTF-8
Codec ID : S_TEXT/UTF8
Codec ID/Info : UTF-8 Plain Text
Title : SDH
Language : English
Default : No
Forced : No

Menu
00:00:00.000 : :1. A Whoville Christmas
00:03:38.383 : :2. Meet the Grinch
00:10:26.792 : :3. Condy Lou's Savior
00:17:50.818 : :4. Christmas, Why Can't I Find You?
00:19:21.951 : :5. No Place Like Home
00:23:36.498 : :6. The Grinch's Story
00:33:29.089 : :7. Cindy Lou's Candidate
00:36:54.795 : :8. The Invitation
00:44:05.434 : :9. Second Thoughts
00:47:12.788 : :10. The Holiday Cheermeister
00:52:58.215 : :11. The Grinch's Revenge
00:59:39.117 : :12. A Wonderful, Awful Idea
01:02:39.672 : :13. You're a Mean One, Mr. Grinch
01:07:04.353 : :14. Grinchy Claus
01:14:36.637 : :15. To Take Every Present
01:18:12.354 : :16. Christmas Destroyed
01:22:01.041 : :17. A Change of Heart
01:27:18.065 : :18. To Save Cindy Lou
01:30:21.623 : :19. Merry Christmas, Mr. Grinch
01:37:52.448 : :20. End Titles
pb.wtf



Скачать Гринч – похититель Рождества через торрент http://i5.imageban.ru/out/2016/12/13/497cdcfcc695220a0c9d094a03009ee3.png Скачать фильм Гринч – похититель Рождества через торрент бесплантно в хорошем качестве Описание:Жил-был в городе Ктограде человечек, и звали его - Гринч. Был он весь зеленый и волосатый, никто его не любил. Обиделся Гринч на ... 10 10 7
Info! Золотая раздача, скачанное не засчитывается.
Торрент: Зарегистрирован [2016-12-13 10:50] · скачан: 244 раз
Статус: √ проверено
Размер: 7.76 GB
Как cкачать? Как скачать Гринч – похититель Рождества через торрент | qTorrent

% Раздел Тема Автор DL S | L
Фильмы (BDRip, HDrip-AVC) (48-60 fps) [ 3.87 GB ] Гринч – похититель Рождества / How the Grinch Stole Christmas [2000 BDRip-AVC 60fps MVO ] от R.G. HD-Films Tiberiumsun69 Скачать
4 | 0
Ultra HD (UHD: 2K, 4K, 8K) — видео сверхвысокой чёткости [ 58.48 GB ] Гринч – похититель Рождества / How the Grinch Stole Christmas [2000 UHD BDRemux 2160p] AVO+MVO +DVO+DUB [] bober100 Скачать
1 | 0
Фильмы [HD 720p, 1080p] (Хороший звук DUB, MVO) [ 11.53 GB ] Гринч – похититель Рождества / How the Grinch Stole Christmas [2000 BDRip 1080p от еnvy / NNNB] DUB Remastered еnvy Скачать
18 | 0
Фильмы до 2000 г. [ 1.59 GB ] Гринч - похититель Рождества / How the Grinch Stole Christmas [2000 BDRip] DUB + MVO sokol_ok Скачать
3 | 0
Фильмы до 2000 г. [ 1.46 GB ] Гринч - похититель Рождества / How the Grinch Stole Christmas [2000 HDRip] serg70 Скачать
1 | 0
Фильмы до 2000 г. [ 2.18 GB ] Гринч - похититель Рождества / How the Grinch Stole Christmas [2000 BDRip-AVC] 2 MVO + MVO VO + Original + Subs -=Cherry=- Скачать
1 | 0

28-11-2019 20:33  

Отключить всю рекламу на сайте

    Дорогой пользователь! Огромная просьба, поблагодарите релизера, оцените раздачу и оставьте свои комментарий, если Вы скачали Гринч – похититель Рождества через торрент бесплатно! Внесите свою лепту в развитие PiratBit!
    Комментировать посты могут только пользователи прошедшие не сложную регистрацию
    Показать сообщения:    

    Гринч – похититель Рождества через торрент
    Скачать бесплатно Гринч – похититель Рождества
    Гринч – похититель Рождества скачать торрент
    Гринч – похититель Рождества смотреть онлайн
    Cкачать фильм Гринч – похититель Рождества бесплатно
    Гринч – похититель Рождества скачать торрент в хорошем качестве
    Гринч – похититель Рождества смотреть онлайн бесплатно в хорошем качестве


    Вы не можете начинать темы
    Вы не можете отвечать на сообщения
    Вы не можете редактировать свои сообщения
    Вы не можете удалять свои сообщения
    Вы не можете голосовать в опросах
    Вы не можете прикреплять файлы к сообщениям
    Вы можете скачивать файлы