Ссылка на приватное зеркало всего за 1$. Внимание количество ограничено!!!

iTunes

1+1

iTunes

мы

WEB-DL

1

iTunes

Чернобыль

iTunes

Ральф против интернета

Лицензия

ПШазам

Лицензия

Оно 2

Лицензия

30
pack

Вам бонус

ВАЖНО

!!Акция!!

Alien_RageХит недели

RePack

Resident Evil 21

ИГРА 18+

pack

RePack

jed

!!Акция!!

Alien_Rage

RePack

fifa19

RePack

Assassins Creed: Odyssey

RePack

NEED FOR SPEED™ PAYBACK

3 сезон

9 сезон

Бесстыжие 9 сезон

Все сериалы

все сериалы на PB.wtf

RePack

FAR CRY 5
Ребята, катастрофически не хватает 1900р. для оплаты серверов за Октябрь (всвязи с блокировками трафик упал в 3 раза), 1-2р., выручайте.
  

Заноза (Николай Санишвили) [1956, СССР, мелодрама, комедия, SATRip от AVP Studio] pb.wtf

Заноза через торрент pb.wtf

Размер: 745 MB | Добавлен: 3 года назад | Торрент скачан:9 раз
Скачать  

14-12-2016 07:33 Заноза Скачать торрент  

Заноза
Страна: СССР
Производство: Грузия-фильм

Жанр: мелодрама, комедия
Год выпуска: 1956
Продолжительность: 01:25:04

Перевод: Не требуется
Cубтитры: нет
Оригинальная аудиодорожка: русский

Режиссер: Николай Санишвили

В ролях:
Лейла Абашидзе, Тенгиз Мушкудиани, Георгий Гегечкори, Марина Тбилели, Акакий (Како) Кванталиани, Жужуна Дугладзе, Александр (Сандро) Жоржолиани, Сесилия Такаишвили, Иван Гвинчидзе, Вахтанг Пирцхалава...
Полный список актёров

Описание:
Героиня фильма — энергичная и веселая девушка-шофер, для которой не существует авторитетов — всем и всегда она говорит только, что думает. За острый язычок ее прозвали Занозой, а ее «трудный» характер становится притчей во языцех. И только влюбленность в красавца-архитектора сказочно преображает строптивую красавицу.

Источник: DVB
Качество видео: SATRip
Формат видео: AVI

Видео: 640x480 (4:3), 25 fps, XviD ~ 1086 kbps avg, 0.141 bit/pixel
Аудио: 48 kHz, MP3 2.0, 128 kbps

Раздача от:
Общее
Полное имя : Zanoza.1956.SATRip-745_[New-team]_by_AVP_Studio.avi
Формат : AVI
Формат/Информация : Audio Video Interleave
Размер файла : 745 Мбайт
Продолжительность : 1 ч. 25 м.
Общий поток : 1224 Кбит/сек
Программа кодирования : VirtualDubMod 1.5.10.3 | www.virtualdub-fr.org || (build 2550/release)
Библиотека кодирования : VirtualDubMod build 2550/release

Видео
Идентификатор : 0
Формат : MPEG-4 Visual
Профиль формата : Advanced Simple@L5
Параметр BVOP формата : 1
Параметр QPel формата : Нет
Параметр GMC формата : Без точки перехода
Параметр матрицы формата : Выборочная
Идентификатор кодека : XVID
Идентификатор кодека/Подсказка : XviD
Продолжительность : 1 ч. 25 м.
Битрейт : 1086 Кбит/сек
Ширина : 640 пикселей
Высота : 480 пикселей
Соотношение сторон : 4:3
Частота кадров : 25,000 кадров/сек
Цветовое пространство : YUV
Субдискретизация насыщенности : 4:2:0
Битовая глубина : 8 бит
Тип развёртки : Прогрессивная
Метод сжатия : С потерями
Бит/(Пиксели*Кадры) : 0.141
Размер потока : 661 Мбайт (89%)
Библиотека кодирования : XviD 1.2.1 (UTC 2008-12-04)

Аудио
Идентификатор : 1
Формат : MPEG Audio
Версия формата : Version 1
Профиль формата : Layer 3
Идентификатор кодека : 55
Идентификатор кодека/Подсказка : MP3
Продолжительность : 1 ч. 25 м.
Вид битрейта : Постоянный
Битрейт : 128 Кбит/сек
Каналы : 2 канала
Частота : 48,0 КГц
Метод сжатия : С потерями
Размер потока : 77,9 Мбайт (10%)
Выравнивание : Соединение по промежуткам
Продолжительность промежутка : 40 мс. (1,00 видеокадр)
Время предзагрузки промежутка : 504 мс.
Библиотека кодирования : LAME3.99r
Настройки программы : -m s -V 4 -q 2 -lowpass 17 -b 128
pb.wtf



Скачать Заноза через торрент http://s017.radikal.ru/i433/1612/1e/bc8c5099d783.png Скачать фильм Заноза через торрент бесплантно в хорошем качестве Описание:Героиня фильма — энергичная и веселая девушка-шофер, для которой не существует авторитетов — всем и всегда она говорит только, что ... 10 10 1
Info! Золотая раздача, скачанное не засчитывается.
Торрент: Зарегистрирован [2016-12-14 07:33] · скачан: 9 раз
Статус: √ проверено
Размер: 745 MB
Как cкачать? Как скачать Заноза через торрент | qTorrent

% Раздел Тема Автор DL S | L
Фильмы [HD 720p, 1080p] (Хороший звук DUB, MVO) [ 8.25 GB ] Заноза / Splinter [2008 BDRip 1080p by msltel] MVO DVO msltel Скачать
1 | 0
Фильмы [HD 720p, 1080p] (Хороший звук DUB, MVO) [ 3.19 GB ] Заноза / Splinter [2008 BDRip 720p by msltel] MVO DVO msltel Скачать
2 | 0
Кино СССР [ 1.09 GB ] Заноза [1956 СССР SATRip-AVC от AVP Studio] AVP Studio Скачать
1 | 0
Кино СССР [ 1.09 GB ] Заноза [1956 СССР SATRip от AVP Studio] AVP Studio Скачать
1 | 0
Фильмы 2006-2008 [ 1.36 GB ] Заноза / Splinter [2008 HDRip MVO лицензия] ФёдорOFF Скачать
1 | 0
Фильмы 2006-2008 [ 2.14 GB ] Заноза / Splinter [2008 BDRip-AVC] MVO|Original|Sub -=BIGBOSS=- Скачать
1 | 0
Фильмы 2006-2008 [ 699 MB ] Заноза  / Splinter [2008 HDTVRip] DEVI Скачать
1 | 0

28-11-2019 20:33  

Отключить всю рекламу на сайте

    Дорогой пользователь! Огромная просьба, поблагодарите релизера, оцените раздачу и оставьте свои комментарий, если Вы скачали Заноза через торрент бесплатно! Внесите свою лепту в развитие PiratBit!
    Комментировать посты могут только пользователи прошедшие не сложную регистрацию
    Показать сообщения:    

    Заноза через торрент
    Скачать бесплатно Заноза
    Заноза скачать торрент
    Заноза смотреть онлайн
    Cкачать фильм Заноза бесплатно
    Заноза скачать торрент в хорошем качестве
    Заноза смотреть онлайн бесплатно в хорошем качестве


    Вы не можете начинать темы
    Вы не можете отвечать на сообщения
    Вы не можете редактировать свои сообщения
    Вы не можете удалять свои сообщения
    Вы не можете голосовать в опросах
    Вы не можете прикреплять файлы к сообщениям
    Вы можете скачивать файлы