Ссылка на приватное зеркало нашего сайта всего за 1$. Внимание количество ограничено!!!

2 сезон

iTunes

1 сезон

1

iTunes

iTunes

iTunes

1 сезон

RePack

30

ИГРА 18+

pack

ВАЖНО

!!Акция!!

Alien_RageХит недели

RePack

MK11
pack

Забери бонус

RePack

jed

!!Акция!!

Alien_Rage

RePack

fifa19

RePack

Assassins Creed: Odyssey

RePack

NEED FOR SPEED™ PAYBACK

4 сезон

9 сезон

Бесстыжие 9 сезон

Все сериалы

все сериалы на PB.wtf

RePack

FAR CRY 5
  

Не могу дождаться / Can't Hardly Wait (Гарри Элфонт, Дебора Каплан) [1998, мелодрама, комедия, BDRip 1080p by msltel] 2 x DVO pb.wtf

Не могу дождаться через торрент pb.wtf

Размер: 11.75 GB | Добавлен: 3 года 10 мес. назад | Торрент скачан:15 раз
Скачать  

14-12-2016 10:35 Не могу дождаться Скачать торрент  

Название: Не могу дождаться
Оригинальное название: Can't Hardly Wait
Год выпуска: 1998
Страна: США
Жанр: мелодрама, комедия
Продолжительность: 01:40:31
Перевод: профессиональный двухголосый

Режиссёр: Гарри Элфонт, Дебора Каплан

В ролях: Дженнифер Лав Хьюитт, Сет Грин, Итэн Эмбри, Чарли Корсмо, Лорен Эмброуз, Питер Фачинелли, Мишель Брукхерст, Александр Мартин, Эрик Палладино, Чэннон Роу, Мелисса Джоан Харт

Описание: Выпускной вечер в полном разгаре. Самое время безмятежно веселиться, вспоминая радостную пору ученичества. Но Престон Майерс настроен очень серьёзно. Ведь утром он уезжает из города и, возможно, больше никогда не увидит красавицу Аманду, королеву бала и его сердца. Четыре года юноша скрывал своё чувство; грандиозная вечеринка — последний шанс наверстать упущенное; более подходящего места просто не найти. Ведь, как известно, ночи созданы для любви…



Качество: BDRip 1080p Сравнение с исходником
Формат: MKV
Видео: MPEG-4 AVC, 14.8 Mбит/с, 1920x1040, 23,976 кадра/с
Аудио 1: русский, AC3, 192 kbps, 2 ch, 48 kHz [профессиональный двухголосый, студия Элром]
Аудио 2: русский, AC3, 192 kbps, 2 ch, 48 kHz [профессиональный двухголосый]
Аудио 3: английский, DTS, 1509 kbps, 6 ch, 48 kHz [оригинал]
Субтитры 1: русские
Субтитры 2: английские
Имеются неименованные главы/чаптеры.
Общее
Уникальный идентификатор : 211696454876633625952099389958856290008 (0x9F4341106ABE2F78969AD999915EAED8)
Полное имя : D:\Video\Не могу дождаться.1998.BDRip.1080p by msltel.mkv
Формат : Matroska
Версия формата : Version 4 / Version 2
Размер файла : 11,8 Гбайт
Продолжительность : 1 ч. 40 м.
Общий поток : 16,7 Мбит/сек
Название фильма : Rip by msltel
Дата кодирования : UTC 2016-12-13 08:59:52
Программа кодирования : mkvmerge v8.2.0 ('World of Adventure') 64bit
Библиотека кодирования : libebml v1.3.1 + libmatroska v1.4.2

Видео
Идентификатор : 1
Формат : AVC
Формат/Информация : Advanced Video Codec
Профиль формата : High@L4.1
Параметр CABAC формата : Да
Параметр ReFrames формата : 4 кадра
Идентификатор кодека : V_MPEG4/ISO/AVC
Продолжительность : 1 ч. 40 м.
Битрейт : 14,8 Мбит/сек
Ширина : 1920 пикселей
Высота : 1040 пикселей
Соотношение сторон : 1,85:1
Режим частоты кадров : Постоянный
Частота кадров : 23,976 (24000/1001) кадра/сек
Цветовое пространство : YUV
Субдискретизация насыщенности : 4:2:0
Битовая глубина : 8 бит
Тип развёртки : Прогрессивная
Бит/(Пиксели*Кадры) : 0.310
Размер потока : 10,4 Гбайт (89%)
Библиотека кодирования : x264 core 146 r2538 121396c
Настройки программы : cabac=1 / ref=4 / deblock=1:-3:-3 / analyse=0x3:0x113 / me=umh / subme=9 / psy=1 / psy_rd=1.00:0.15 / mixed_ref=1 / me_range=32 / chroma_me=1 / trellis=1 / 8x8dct=1 / cqm=0 / deadzone=21,11 / fast_pskip=0 / chroma_qp_offset=-3 / threads=6 / lookahead_threads=1 / sliced_threads=0 / nr=0 / decimate=1 / interlaced=0 / bluray_compat=0 / constrained_intra=0 / bframes=9 / b_pyramid=2 / b_adapt=2 / b_bias=0 / direct=1 / weightb=0 / open_gop=0 / weightp=2 / keyint=230 / keyint_min=23 / scenecut=40 / intra_refresh=0 / rc_lookahead=40 / rc=crf / mbtree=0 / crf=20.5 / qcomp=0.60 / qpmin=0 / qpmax=69 / qpstep=4 / vbv_maxrate=50000 / vbv_bufsize=62500 / crf_max=0.0 / nal_hrd=none / filler=0 / ip_ratio=1.40 / pb_ratio=1.30 / aq=1:1.00
Язык : English
Default : Да
Forced : Нет

Аудио #1
Идентификатор : 2
Формат : AC-3
Формат/Информация : Audio Coding 3
Расширение режима : CM (complete main)
Параметр Endianness формата : Big
Идентификатор кодека : A_AC3
Продолжительность : 1 ч. 40 м.
Вид битрейта : Постоянный
Битрейт : 192 Кбит/сек
Каналы : 2 канала
Расположение каналов : Front: L R
Частота : 48,0 КГц
Частота кадров : 31,250 кадров/сек (1536 spf)
Метод сжатия : С потерями
Размер потока : 138 Мбайт (1%)
Заголовок : DVO (студия Элром)
Язык : Russian
Default : Да
Forced : Нет

Аудио #2
Идентификатор : 3
Формат : AC-3
Формат/Информация : Audio Coding 3
Расширение режима : CM (complete main)
Параметр Endianness формата : Big
Идентификатор кодека : A_AC3
Продолжительность : 1 ч. 40 м.
Вид битрейта : Постоянный
Битрейт : 192 Кбит/сек
Каналы : 2 канала
Расположение каналов : Front: L R
Частота : 48,0 КГц
Частота кадров : 31,250 кадров/сек (1536 spf)
Метод сжатия : С потерями
Размер потока : 138 Мбайт (1%)
Заголовок : DVO
Язык : Russian
Default : Нет
Forced : Нет

Аудио #3
Идентификатор : 4
Формат : DTS
Формат/Информация : Digital Theater Systems
Режим : 16
Параметр Endianness формата : Big
Идентификатор кодека : A_DTS
Продолжительность : 1 ч. 40 м.
Вид битрейта : Постоянный
Битрейт : 1509 Кбит/сек
Каналы : 6 каналов
Расположение каналов : Front: L C R, Side: L R, LFE
Частота : 48,0 КГц
Частота кадров : 93,750 кадра/сек (512 spf)
Битовая глубина : 16 бит
Метод сжатия : С потерями
Размер потока : 1,06 Гбайт (9%)
Заголовок : original
Язык : English
Default : Нет
Forced : Нет

Текст #1
Идентификатор : 5
Формат : UTF-8
Идентификатор кодека : S_TEXT/UTF8
Идентификатор кодека/Информация : UTF-8 Plain Text
Продолжительность : 1 ч. 35 м.
Битрейт : 108 бит/сек
Count of elements : 1252
Размер потока : 76,2 Кбайт (0%)
Заголовок : русские
Язык : Russian
Default : Нет
Forced : Нет

Текст #2
Идентификатор : 6
Формат : UTF-8
Идентификатор кодека : S_TEXT/UTF8
Идентификатор кодека/Информация : UTF-8 Plain Text
Продолжительность : 1 ч. 35 м.
Битрейт : 64 бит/сек
Count of elements : 1291
Размер потока : 45,4 Кбайт (0%)
Заголовок : английские
Язык : English
Default : Нет
Forced : Нет

Меню
00:00:00.000 : en:Chapter 01
00:05:57.398 : en:Chapter 02
00:09:45.501 : en:Chapter 03
00:16:42.042 : en:Chapter 04
00:24:03.817 : en:Chapter 05
00:29:58.338 : en:Chapter 06
00:32:41.834 : en:Chapter 07
00:44:37.216 : en:Chapter 08
00:49:15.369 : en:Chapter 09
00:53:47.098 : en:Chapter 10
01:00:12.984 : en:Chapter 11
01:06:26.273 : en:Chapter 12
01:12:30.720 : en:Chapter 13
01:17:32.189 : en:Chapter 14
01:23:57.032 : en:Chapter 15
01:29:26.611 : en:Chapter 16
pb.wtf



Скачать Не могу дождаться через торрент http://s020.radikal.ru/i705/1612/36/6cd238dcd42a.jpg Скачать фильм Не могу дождаться через торрент бесплантно в хорошем качестве Описание: Выпускной вечер в полном разгаре. Самое время безмятежно веселиться, вспоминая радостную пору ученичества. Но Престон Майерс ... 7 10 3
Info! Золотая раздача, скачанное не засчитывается.
Торрент: Зарегистрирован [2016-12-14 10:35] · скачан: 15 раз
Статус: √ проверено
Размер: 11.75 GB
Как cкачать? Как скачать Не могу дождаться через торрент | qTorrent

28-11-2019 20:33  

Отключить всю рекламу на сайте

    Дорогой пользователь! Огромная просьба, поблагодарите релизера, оцените раздачу и оставьте свои комментарий, если Вы скачали Не могу дождаться через торрент бесплатно! Внесите свою лепту в развитие PiratBit!
    Комментировать посты могут только пользователи прошедшие не сложную регистрацию
    Показать сообщения:    

    Не могу дождаться через торрент
    Скачать бесплатно Не могу дождаться
    Не могу дождаться скачать торрент
    Не могу дождаться смотреть онлайн
    Cкачать фильм Не могу дождаться бесплатно
    Не могу дождаться скачать торрент в хорошем качестве
    Не могу дождаться смотреть онлайн бесплатно в хорошем качестве


    Вы не можете начинать темы
    Вы не можете отвечать на сообщения
    Вы не можете редактировать свои сообщения
    Вы не можете удалять свои сообщения
    Вы не можете голосовать в опросах
    Вы не можете прикреплять файлы к сообщениям
    Вы можете скачивать файлы