Ссылка на приватное зеркало всего за 1$. Внимание количество ограничено!!!

iTunes

iTunes

iTunes

1

iTunes

iTunes

iTunes

iTunes

iTunes

30
pack

Новость дня

ВАЖНО

!!Акция!!

Alien_RageХит недели

RePack

Resident Evil 21

ИГРА 18+

pack

RePack

jed

!!Акция!!

Alien_Rage

RePack

fifa19

RePack

Assassins Creed: Odyssey

RePack

NEED FOR SPEED™ PAYBACK

4 сезон

9 сезон

Бесстыжие 9 сезон

Все сериалы

все сериалы на PB.wtf

RePack

FAR CRY 5
  

Ближе, чем кажется (Наталия Беляускене, Максим Воскобоев) [2015 г., семейный, приключения, мелодрама, HDTVRip-AVC] pb.wtf

Ближе, чем кажется через торрент pb.wtf

Размер: 1.72 GB | Добавлен: 3 года 5 мес. назад | Торрент скачан:64 раза
Скачать  

14-12-2016 20:25 Ближе, чем кажется Скачать торрент  

Ближе, чем кажется
Год выпуска: 2015
Страна: Россия
Жанр: семейный, приключения, мелодрама
Продолжительность: 02:01:30
Перевод: Не требуется [Русский]
Субтитры: отсутствуют

Режиссер: Наталия Беляускене, Максим Воскобоев



В ролях:

Тимофей Трибунцев, Даниил Изотов, Максим Сапрыкин, Руслан Щедрин, Владимир Свирский, Евгения Дмитриева, Ия Нинидзе, Елизавета Зарубина и др.

Описание:

Четыре независимых сюжета, которые объединяет извечная тема отцов и детей, особенно актуальная для русской литературы и отечественного кино. Каждая история рассказывает о наших современниках и затрагивает животрепещущие вопросы нравственности, непонимания, благодарности и любви.4 героя. Каждый из них встаёт перед выбором, который способен определить последующий ход его жизни. 6-летнее музыкальное дарование Коля Пыхтин, приезжает на конкурс в Москву. О чём он мечтает? В его мыслях лишь желание отыскать родного отца, а не победа. Второй юный герой — мальчик-сирота по имени Сеня. Он находит потайной ход, через который можно попасть в тихую морскую бухту, и теперь он должен решить, что лучше для него: попытаться найти общий язык с приёмными родителями или навсегда остаться в уединении. Третий герой, Георгий, не одобряет поступок родной дочери, которая сбежала из дома вместе со своим возлюбленным. Скрывая правду от окружающих, мужчина вынужден говорить всем, что девушка уехала учиться. Четвёртая история показывает то, как 8-летняя Саша постепенно сближается со своим отчимом, ведь когда маме нужна помощь ни девочка, ни «новый папа» не могут остаться в стороне. «Счастье рядом!» Качество: HDTVRip-AVC
Формат: MKV
Видео кодек: H.264
Аудио кодек: AC3

Видео: 1024x430, (2.40:1), 25 fps, AVC MPEG-4 (x264), High@L4.1, 1575 Кbps avg, 0.143 bit/pixel
Аудио#1: 44 kHz, AC3 Dolby Digital, 3/2 (L,C,R,l,r) + LFE ch, ~448.00 kbps
Общее
Уникальный идентификатор : 123234477228306963890040069141816399568 (0x5CB618D42C1318327647522ACBF3D6D0)
Полное имя : C:\Blizhe.chem.kazhitsja.2015.HDTVRip.AVC.mkv
Формат : Matroska
Версия формата : Version 2
Размер файла : 1,72 Гбайт
Продолжительность : 2 ч. 1 м.
Общий поток : 2025 Кбит/сек
Дата кодирования : UTC 2016-12-14T01:19:03Z
Программа кодирования : HandBrake 0.10.5 2016021100
Библиотека кодирования : Lavf55.12.0 / Lavf55.12.0

Видео
Идентификатор : 1
Формат : AVC
Формат/Информация : Advanced Video Codec
Профиль формата : High@L4.1
Параметр CABAC формата : Да
Параметр ReFrames формата : 16 кадров
Идентификатор кодека : V_MPEG4/ISO/AVC
Продолжительность : 2 ч. 1 м.
Битрейт : 1575 Кбит/сек
Ширина : 1024 пикселя
Высота : 430 пикселей
Соотношение сторон : 2,40:1
Режим частоты кадров : Постоянный
Частота кадров : 25,000 кадров/сек
Цветовое пространство : YUV
Субдискретизация насыщенности : 4:2:0
Битовая глубина : 8 бит
Тип развёртки : Прогрессивная
Бит/(Пиксели*Кадры) : 0.143
Размер потока : 1,30 Гбайт (76%)
Библиотека кодирования : x264 core 142 r2479 dd79a61
Настройки программы : cabac=1 / ref=16 / deblock=1:-3:-3 / analyse=0x3:0x133 / me=umh / subme=10 / psy=1 / psy_rd=2.00:0.70 / mixed_ref=1 / me_range=24 / chroma_me=1 / trellis=2 / 8x8dct=1 / cqm=0 / deadzone=21,11 / fast_pskip=1 / chroma_qp_offset=-4 / threads=12 / lookahead_threads=2 / sliced_threads=0 / nr=0 / decimate=1 / interlaced=0 / bluray_compat=0 / constrained_intra=0 / bframes=8 / b_pyramid=2 / b_adapt=2 / b_bias=0 / direct=3 / weightb=1 / open_gop=0 / weightp=2 / keyint=250 / keyint_min=25 / scenecut=40 / intra_refresh=0 / rc_lookahead=60 / rc=2pass / mbtree=1 / bitrate=1575 / ratetol=1.0 / qcomp=0.60 / qpmin=0 / qpmax=69 / qpstep=4 / cplxblur=20.0 / qblur=0.5 / vbv_maxrate=62500 / vbv_bufsize=78125 / nal_hrd=none / filler=0 / ip_ratio=1.40 / aq=1:1.20
Default : Да
Forced : Нет
Цветовой диапазон : Limited
Основные цвета : BT.709
Характеристики трансфера : BT.709
Коэффициенты матрицы : BT.709

Аудио
Идентификатор : 2
Формат : AC-3
Формат/Информация : Audio Coding 3
Расширение режима : CM (complete main)
Параметр Endianness формата : Big
Идентификатор кодека : A_AC3
Продолжительность : 2 ч. 1 м.
Вид битрейта : Постоянный
Битрейт : 448 Кбит/сек
Каналы : 6 каналов
Расположение каналов : Front: L C R, Side: L R, LFE
Частота : 44,1 КГц
Частота кадров : 28,711 кадров/сек (1536 spf)
Битовая глубина : 16 бит
Метод сжатия : С потерями
Размер потока : 389 Мбайт (22%)
Заголовок : Surround
Язык : Russian
Default : Да
Forced : Нет
скриншот  скриншот  скриншот  скриншот  
pb.wtf



Скачать Ближе, чем кажется через торрент http://s017.radikal.ru/i417/1612/11/44e56a7eb272.jpg Скачать фильм Ближе, чем кажется через торрент бесплантно в хорошем качестве Описание: Четыре независимых сюжета, которые объединяет извечная тема отцов и детей, особенно актуальная для русской литературы и ... 7.8 10 8
Торрент: Зарегистрирован [2016-12-14 20:25] · скачан: 64 раз
Статус: √ проверено
Размер: 1.72 GB
Как cкачать? Как скачать Ближе, чем кажется через торрент | qTorrent

% Раздел Тема Автор DL S | L
Наши новые фильмы 2015 [ 749 MB ] Ближе чем кажется [2015 HDTVRip] bober100 Скачать
1 | 0

28-11-2019 20:33  

Отключить всю рекламу на сайте

    Дорогой пользователь! Огромная просьба, поблагодарите релизера, оцените раздачу и оставьте свои комментарий, если Вы скачали Ближе, чем кажется через торрент бесплатно! Внесите свою лепту в развитие PiratBit!
    Комментировать посты могут только пользователи прошедшие не сложную регистрацию
    Показать сообщения:    

    Ближе, чем кажется через торрент
    Скачать бесплатно Ближе, чем кажется
    Ближе, чем кажется скачать торрент
    Ближе, чем кажется смотреть онлайн
    Cкачать фильм Ближе, чем кажется бесплатно
    Ближе, чем кажется скачать торрент в хорошем качестве
    Ближе, чем кажется смотреть онлайн бесплатно в хорошем качестве


    Вы не можете начинать темы
    Вы не можете отвечать на сообщения
    Вы не можете редактировать свои сообщения
    Вы не можете удалять свои сообщения
    Вы не можете голосовать в опросах
    Вы не можете прикреплять файлы к сообщениям
    Вы можете скачивать файлы