Ссылка на приватное зеркало нашего сайта всего за 1$. Внимание количество ограничено!!!

2 сезон

iTunes

1 сезон

1

iTunes

iTunes

iTunes

1 сезон

RePack

30

ИГРА 18+

pack

ВАЖНО

!!Акция!!

Alien_RageХит недели

RePack

MK11
pack

Забери бонус

RePack

jed

!!Акция!!

Alien_Rage

RePack

fifa19

RePack

Assassins Creed: Odyssey

RePack

NEED FOR SPEED™ PAYBACK

4 сезон

9 сезон

Бесстыжие 9 сезон

Все сериалы

все сериалы на PB.wtf

RePack

FAR CRY 5
  

Хуже, чем ложь / Misconduct (Шинтаро Шимосава) [2016, триллер, драма, BDRip 1080p] Дубляж - [Лицензия / iTunes] pb.wtf

Хуже, чем ложь через торрент pb.wtf

Размер: 9.24 GB | Добавлен: 3 года 10 мес. назад | Торрент скачан:388 раз
Скачать  

15-12-2016 05:22 Хуже, чем ложь Скачать торрент  

Хуже, чем ложь / Misconduct

Год выпуска: 2016
Страна: США
Жанр: триллер, драма

Продолжительность: 01:45:54
Перевод: Дубляж - [Лицензия / iTunes]
Субтитры: английские
Режиссер: Шинтаро Шимосава
В ролях:

Джош Дюамель (Ben Cahill), Энтони Хопкинс (Arthur Denning), Аль Пачино (Charles Abrams), Элис Ив (Charlotte Cahill), Малин Акерман (Emily Hynes), Ли Бён-хон (The Accountant), Джулия Стайлз (Jane Clemente), Глен Пауэлл (Doug Fields), Маркус Лайл Браун (Joe Bilson), Леа МакКендрик (Amy), Крис Маркетт (Giffords), Скай П. Маршалл (Hatty)
Описание:
Когда амбициозный молодой юрист берется за большое дело против влиятельного и безжалостного исполнительного директора крупной фармацевтической компании, он оказывается втянут в мир шантажа и коррупции.
Рейтинг:

MPAA: R - Лицам до 17 лет обязательно присутствие взрослого
Качество: BDRip 1080p
Формат: MKV
Видео: AVC, 1920x804 (2.40:1), 10346 kbps, 23,976 fps, 0,280 bpp
Аудио №1: русский / AC3 / 5.1 / 48 kHz / 384 kbps / |Дубляж, iTunes|
Аудио №2: английский / DTS / 5.1 / 48 kHz / 1509 kbps / 24 bit
Навигация по главам: есть
General
Unique ID : 203861938763699089341529378043012237462 (0x995E6198DA146E1AAE97529D6E76C896)
Complete name : E:\Misconduct.2016.BDRip.1080p.mkv
Format : Matroska
Format version : Version 2
File size : 9.24 GiB
Duration : 1 h 45 min
Overall bit rate : 12.5 Mb/s
Movie name : Misconduct.2016.BDRip.1080p
Encoded date : UTC 2016-12-14 19:43:05
Writing application : mkvmerge v4.0.0 ('The Stars were mine') сборка от Jun 6 2010 16:18:42
Writing library : libebml v1.0.0 + libmatroska v1.0.0

Video
ID : 1
Format : AVC
Format/Info : Advanced Video Codec
Format profile : High@L4.1
Format settings, CABAC : Yes
Format settings, ReFrames : 5 frames
Codec ID : V_MPEG4/ISO/AVC
Duration : 1 h 45 min
Bit rate : 10.3 Mb/s
Width : 1 920 pixels
Height : 804 pixels
Display aspect ratio : 2.40:1
Frame rate mode : Constant
Frame rate : 23.976 (24000/1001) FPS
Color space : YUV
Chroma subsampling : 4:2:0
Bit depth : 8 bits
Scan type : Progressive
Bits/(Pixel*Frame) : 0.280
Stream size : 7.65 GiB (83%)
Writing library : x264 core 146 r2538 121396c
Encoding settings : cabac=1 / ref=5 / deblock=1:-3:-3 / analyse=0x3:0x133 / me=tesa / subme=11 / psy=1 / psy_rd=1.04:0.00 / mixed_ref=1 / me_range=32 / chroma_me=1 / trellis=2 / 8x8dct=1 / cqm=0 / deadzone=21,11 / fast_pskip=0 / chroma_qp_offset=-2 / threads=48 / lookahead_threads=6 / sliced_threads=0 / nr=0 / decimate=0 / interlaced=0 / bluray_compat=0 / constrained_intra=0 / bframes=12 / b_pyramid=2 / b_adapt=2 / b_bias=0 / direct=3 / weightb=1 / open_gop=0 / weightp=2 / keyint=240 / keyint_min=23 / scenecut=40 / intra_refresh=0 / rc_lookahead=150 / rc=crf / mbtree=0 / crf=17.3 / qcomp=0.60 / qpmin=0 / qpmax=69 / qpstep=4 / vbv_maxrate=62500 / vbv_bufsize=78125 / crf_max=0.0 / nal_hrd=none / filler=0 / ip_ratio=1.40 / pb_ratio=1.30 / aq=1:0.80
Language : English
Default : No
Forced : No

Audio #1
ID : 2
Format : AC-3
Format/Info : Audio Coding 3
Mode extension : CM (complete main)
Format settings, Endianness : Big
Codec ID : A_AC3
Duration : 1 h 45 min
Bit rate mode : Constant
Bit rate : 384 kb/s
Channel(s) : 6 channels
Channel positions : Front: L C R, Side: L R, LFE
Sampling rate : 48.0 kHz
Frame rate : 31.250 FPS (1536 spf)
Compression mode : Lossy
Stream size : 291 MiB (3%)
Title : DUB | iTunes
Language : Russian
Default : Yes
Forced : Yes

Audio #2
ID : 3
Format : DTS
Format/Info : Digital Theater Systems
Mode : 16
Format settings, Endianness : Big
Codec ID : A_DTS
Duration : 1 h 45 min
Bit rate mode : Constant
Bit rate : 1 509 kb/s
Channel(s) : 6 channels
Channel positions : Front: L C R, Side: L R, LFE
Sampling rate : 48.0 kHz
Frame rate : 93.750 FPS (512 spf)
Bit depth : 24 bits
Compression mode : Lossy
Delay relative to video : 11 ms
Stream size : 1.12 GiB (12%)
Language : English
Default : No
Forced : No

Text
ID : 4
Format : UTF-8
Codec ID : S_TEXT/UTF8
Codec ID/Info : UTF-8 Plain Text
Language : English
Default : No
Forced : No

Menu
00:00:00.000 : en:Chapter 1
00:09:31.946 : en:Chapter 2
00:15:35.810 : en:Chapter 3
00:25:51.925 : en:Chapter 4
00:34:03.583 : en:Chapter 5
00:37:49.809 : en:Chapter 6
00:44:09.856 : en:Chapter 7
00:50:30.694 : en:Chapter 8
00:58:21.540 : en:Chapter 9
01:03:56.166 : en:Chapter 10
01:11:36.751 : en:Chapter 11
01:18:43.052 : en:Chapter 12
01:24:04.206 : en:Chapter 13
01:29:02.796 : en:Chapter 14
01:35:34.270 : en:Chapter 15
01:37:01.274 : en:Chapter 16
pb.wtf



Скачать Хуже, чем ложь через торрент http://i3.imageban.ru/out/2016/12/15/f49b4bf45e58bd22d6caa7db2be175d5.jpg Скачать фильм Хуже, чем ложь через торрент бесплантно в хорошем качестве Описание: Когда амбициозный молодой юрист берется за большое дело против влиятельного и безжалостного исполнительного директора крупной ... 9.1 10 11
Info! Золотая раздача, скачанное не засчитывается.
Торрент: Зарегистрирован [2016-12-15 05:22] · скачан: 388 раз
Статус: √ проверено
Размер: 9.24 GB
Как cкачать? Как скачать Хуже, чем ложь через торрент | qTorrent

% Раздел Тема Автор DL S | L
R.G. Resident & PiratVoice - Фильмы, Видео [ 1.73 GB ] Хуже чем ложь / Misconduct [2016 BDRip-AVC] - R.G.Resident schultz Скачать
1 | 0
Фильмы 2016 [DVDrip, WEB-DLRip, HDrip] (DUB, MVO) [ 1.41 GB ] Хуже чем ложь / Misconduct [2016 BDRip] - -Lexx- Скачать
1 | 0
Фильмы 2016 [DVDrip, WEB-DLRip, HDrip] (DUB, MVO) [ 747 MB ] Хуже чем ложь / Misconduct [2016 HDRip by _Один_777] Dub () Один 777 Скачать
1 | 0
Фильмы 2016 [DVDrip, WEB-DLRip, HDrip] (DUB, MVO) [ 1.42 GB ] Хуже чем ложь / Misconduct [2016 BDRip] - Twi7ter Скачать
1 | 0

28-11-2019 20:33  

Отключить всю рекламу на сайте

15-01-2017 14:13 Хуже, чем ложь Скачать торрент  

мутотень. скукотища. посмотрел только из-за легендарных актеров.pb.wtf



    Дорогой пользователь! Огромная просьба, поблагодарите релизера, оцените раздачу и оставьте свои комментарий, если Вы скачали Хуже, чем ложь через торрент бесплатно! Внесите свою лепту в развитие PiratBit!
    Комментировать посты могут только пользователи прошедшие не сложную регистрацию
    Показать сообщения:    

    Хуже, чем ложь через торрент
    Скачать бесплатно Хуже, чем ложь
    Хуже, чем ложь скачать торрент
    Хуже, чем ложь смотреть онлайн
    Cкачать фильм Хуже, чем ложь бесплатно
    Хуже, чем ложь скачать торрент в хорошем качестве
    Хуже, чем ложь смотреть онлайн бесплатно в хорошем качестве


    Вы не можете начинать темы
    Вы не можете отвечать на сообщения
    Вы не можете редактировать свои сообщения
    Вы не можете удалять свои сообщения
    Вы не можете голосовать в опросах
    Вы не можете прикреплять файлы к сообщениям
    Вы можете скачивать файлы