Ссылка на приватное зеркало нашего сайта всего за 1$. Внимание количество ограничено!!!

2 сезон

iTunes

1 сезон

1

iTunes

iTunes

iTunes

1 сезон

RePack

30

ИГРА 18+

pack

ВАЖНО

!!Акция!!

Alien_RageХит недели

RePack

MK11
pack

Забери бонус

RePack

jed

!!Акция!!

Alien_Rage

RePack

fifa19

RePack

Assassins Creed: Odyssey

RePack

NEED FOR SPEED™ PAYBACK

4 сезон

9 сезон

Бесстыжие 9 сезон

Все сериалы

все сериалы на PB.wtf

RePack

FAR CRY 5
  

Здравствуй, грусть / Bonjour tristesse (Отто Премингер) [1958, драма, BDRip 1080p by msltel] MVO pb.wtf

Здравствуй, грусть через торрент pb.wtf

Размер: 9.91 GB | Добавлен: 3 года 10 мес. назад | Торрент скачан:1 раз
Скачать  

15-12-2016 06:27 Здравствуй, грусть Скачать торрент  

Название: Здравствуй, грусть
Оригинальное название: Bonjour tristesse
Год выпуска: 1958
Страна: США
Жанр: драма
Продолжительность: 01:33:41
Перевод: профессиональный многоголосый

Режиссёр: Отто Премингер

В ролях: Дебора Керр, Дэвид Найвен, Джин Сиберг, Милен Демонжо, Джин Кент, Джеффри Хорн, Жюльетт Греко, Вальтер Кьяри, Мартита Хант, Роланд Калвер

Описание: Семнадцатилетняя Сесиль, её отец Раймон и его подружка Эльза живут на уединенной вилле у Средиземного моря. Однажды Раймон объявляет, что к ним на несколько дней приедет погостить его старая знакомая Анна Ларсен. Сесиль удивлена: что может связывать легкомысленного отца и сдержанную Анну? Вскоре её удивление перерастает в возмущение, потому что Раймон и Анна сообщают, что собираются пожениться... Фильм по одноимённому роману Франзуазы Саган.



Качество: BDRip 1080p Сравнение с исходником
Формат: MKV
Видео: MPEG-4 AVC, 14.2 Mбит/с, 1920x816, 23,976 кадра/с
Аудио 1: русский, AC3, 192 kbps, 2 ch, 48 kHz [профессиональный многоголосый, Первый канал]
Аудио 2: английский, DTS, 768 kbps, 1 ch, 48 kHz [оригинал]
Субтитры: английские
Имеются неименованные главы/чаптеры.
Общее
Уникальный идентификатор : 174518310042667440783017788423945116584 (0x834B01009B3CDAE1977213F3DB38DBA8)
Полное имя : D:\Video\Здравствуй, грусть.1958.BDRip.1080p by msltel.mkv
Формат : Matroska
Версия формата : Version 4 / Version 2
Размер файла : 9,91 Гбайт
Продолжительность : 1 ч. 33 м.
Общий поток : 15,1 Мбит/сек
Название фильма : Rip by msltel
Дата кодирования : UTC 2016-12-15 02:57:22
Программа кодирования : mkvmerge v8.2.0 ('World of Adventure') 64bit
Библиотека кодирования : libebml v1.3.1 + libmatroska v1.4.2

Видео
Идентификатор : 1
Формат : AVC
Формат/Информация : Advanced Video Codec
Профиль формата : High@L4.1
Параметр CABAC формата : Да
Параметр ReFrames формата : 4 кадра
Идентификатор кодека : V_MPEG4/ISO/AVC
Продолжительность : 1 ч. 33 м.
Битрейт : 14,2 Мбит/сек
Ширина : 1920 пикселей
Высота : 816 пикселей
Соотношение сторон : 2,35:1
Режим частоты кадров : Постоянный
Частота кадров : 23,976 (24000/1001) кадра/сек
Цветовое пространство : YUV
Субдискретизация насыщенности : 4:2:0
Битовая глубина : 8 бит
Тип развёртки : Прогрессивная
Бит/(Пиксели*Кадры) : 0.377
Размер потока : 9,28 Гбайт (94%)
Библиотека кодирования : x264 core 146 r2538 121396c
Настройки программы : cabac=1 / ref=4 / deblock=1:-3:-3 / analyse=0x3:0x113 / me=umh / subme=9 / psy=1 / psy_rd=1.00:0.15 / mixed_ref=1 / me_range=32 / chroma_me=1 / trellis=1 / 8x8dct=1 / cqm=0 / deadzone=21,11 / fast_pskip=0 / chroma_qp_offset=-3 / threads=6 / lookahead_threads=1 / sliced_threads=0 / nr=0 / decimate=1 / interlaced=0 / bluray_compat=0 / constrained_intra=0 / bframes=11 / b_pyramid=2 / b_adapt=2 / b_bias=0 / direct=1 / weightb=0 / open_gop=0 / weightp=2 / keyint=230 / keyint_min=23 / scenecut=40 / intra_refresh=0 / rc_lookahead=40 / rc=crf / mbtree=0 / crf=19.2 / qcomp=0.60 / qpmin=0 / qpmax=69 / qpstep=4 / vbv_maxrate=50000 / vbv_bufsize=62500 / crf_max=0.0 / nal_hrd=none / filler=0 / ip_ratio=1.40 / pb_ratio=1.30 / aq=1:1.00
Язык : English
Default : Да
Forced : Нет

Аудио #1
Идентификатор : 2
Формат : AC-3
Формат/Информация : Audio Coding 3
Расширение режима : CM (complete main)
Параметр Endianness формата : Big
Идентификатор кодека : A_AC3
Продолжительность : 1 ч. 33 м.
Вид битрейта : Постоянный
Битрейт : 192 Кбит/сек
Каналы : 2 канала
Расположение каналов : Front: L R
Частота : 48,0 КГц
Частота кадров : 31,250 кадров/сек (1536 spf)
Метод сжатия : С потерями
Размер потока : 129 Мбайт (1%)
Заголовок : MVO (Первый канал)
Язык : Russian
Default : Да
Forced : Нет

Аудио #2
Идентификатор : 3
Формат : DTS
Формат/Информация : Digital Theater Systems
Режим : 16
Параметр Endianness формата : Big
Идентификатор кодека : A_DTS
Продолжительность : 1 ч. 33 м.
Вид битрейта : Постоянный
Битрейт : 768 Кбит/сек
Каналы : 1 канал
Расположение каналов : Front: C
Частота : 48,0 КГц
Частота кадров : 93,750 кадра/сек (512 spf)
Битовая глубина : 24 бит
Метод сжатия : С потерями
Размер потока : 515 Мбайт (5%)
Заголовок : original
Язык : English
Default : Нет
Forced : Нет

Текст
Идентификатор : 4
Формат : UTF-8
Идентификатор кодека : S_TEXT/UTF8
Идентификатор кодека/Информация : UTF-8 Plain Text
Продолжительность : 1 ч. 31 м.
Битрейт : 76 бит/сек
Count of elements : 1432
Размер потока : 51,2 Кбайт (0%)
Заголовок : английские
Язык : English
Default : Нет
Forced : Нет

Меню
00:00:00.000 : en:Chapter 01
00:10:36.052 : en:Chapter 02
00:14:28.701 : en:Chapter 03
00:24:10.824 : en:Chapter 04
00:33:22.125 : en:Chapter 05
00:41:04.003 : en:Chapter 06
00:48:46.841 : en:Chapter 07
00:56:42.649 : en:Chapter 08
01:07:24.082 : en:Chapter 09
01:17:38.863 : en:Chapter 10
01:25:11.565 : en:Chapter 11
01:28:54.871 : en:Chapter 12
pb.wtf



Скачать Здравствуй, грусть через торрент http://s11.radikal.ru/i183/1612/34/9ef51d348690.jpg Скачать фильм Здравствуй, грусть через торрент бесплантно в хорошем качестве Описание: Семнадцатилетняя Сесиль, её отец Раймон и его подружка Эльза живут на уединенной вилле у Средиземного моря. Однажды Раймон ... 10 10 2
Info! Золотая раздача, скачанное не засчитывается.
Торрент: Зарегистрирован [2016-12-15 06:27] · скачан: 1 раз
Статус: √ проверено
Размер: 9.91 GB
Как cкачать? Как скачать Здравствуй, грусть через торрент | qTorrent

% Раздел Тема Автор DL S | L
Фильмы [HD 720p, 1080p] (Хороший звук DUB, MVO) [ 3.48 GB ] Здравствуй грусть / Bonjour tristesse [1958 BDRip 720p by msltel] MVO msltel Скачать
1 | 0

28-11-2019 20:33  

Отключить всю рекламу на сайте

    Дорогой пользователь! Огромная просьба, поблагодарите релизера, оцените раздачу и оставьте свои комментарий, если Вы скачали Здравствуй, грусть через торрент бесплатно! Внесите свою лепту в развитие PiratBit!
    Комментировать посты могут только пользователи прошедшие не сложную регистрацию
    Показать сообщения:    

    Здравствуй, грусть через торрент
    Скачать бесплатно Здравствуй, грусть
    Здравствуй, грусть скачать торрент
    Здравствуй, грусть смотреть онлайн
    Cкачать фильм Здравствуй, грусть бесплатно
    Здравствуй, грусть скачать торрент в хорошем качестве
    Здравствуй, грусть смотреть онлайн бесплатно в хорошем качестве


    Вы не можете начинать темы
    Вы не можете отвечать на сообщения
    Вы не можете редактировать свои сообщения
    Вы не можете удалять свои сообщения
    Вы не можете голосовать в опросах
    Вы не можете прикреплять файлы к сообщениям
    Вы можете скачивать файлы