Ссылка на приватное зеркало нашего сайта всего за 1$. Внимание количество ограничено!!!

2 сезон

iTunes

1 сезон

1

iTunes

iTunes

iTunes

1 сезон

RePack

30

ИГРА 18+

pack

ВАЖНО

!!Акция!!

Alien_RageХит недели

RePack

MK11
pack

Забери бонус

RePack

jed

!!Акция!!

Alien_Rage

RePack

fifa19

RePack

Assassins Creed: Odyssey

RePack

NEED FOR SPEED™ PAYBACK

4 сезон

9 сезон

Бесстыжие 9 сезон

Все сериалы

все сериалы на PB.wtf

RePack

FAR CRY 5
  

Кубо. Легенда о самурае / Kubo and the Two Strings (Трэвис Найт) [2016, мультфильм, фэнтези, приключения, BDRip] Дубляж - [Лицензия / iTunes] pb.wtf

Кубо. Легенда о самурае через торрент pb.wtf

Размер: 1.41 GB | Добавлен: 3 года 10 мес. назад | Торрент скачан:698 раз
Скачать  

15-12-2016 07:07 Кубо. Легенда о самурае Скачать торрент  

Кубо. Легенда о самурае / Kubo and the Two Strings

Год выпуска: 2016
Страна: США
Жанр: мультфильм, фэнтези, приключения, семейный

Продолжительность: 01:41:36
Перевод: Дубляж - [Лицензия / iTunes]
Режиссер: Трэвис Найт
В ролях:

Арт Паркинсон (Kubo, озвучка), Шарлиз Терон (Monkey, озвучка), Рэйф Файнс (Moon King, озвучка), Джордж Такей (Hosato, озвучка), Кэри-Хироюки Тагава (Hashi, озвучка), Бренда Ваккаро (Kameyo, озвучка), Руни Мара (The Sisters, озвучка), Мэттью МакКонахи (Beetle, озвучка), Мейрик Мерфи (Mari, озвучка), Мина Нодзи (Minae, озвучка), Альфа Такахаси (Aiko, озвучка), Лаура Миро (Miho, озвучка)
Описание:
Кубо - наследник великого рода, но когда возвратились духи прошлого, жаждущие мести, на его защиту отважилась встать лишь странная парочка хранителей. И теперь для Кубо единственный шанс на спасение - найти магические доспехи отца, легендарного самурая.
Рейтинг:

MPAA: PG - Рекомендуется присутствие родителей
Качество: BDRip
Формат: AVI
Видео: XviD, 720x304 (2.35:1), 1520 kbps, 23,976 fps, 0,290 bpp
Аудио: AC3 / 5.1 / 48 kHz / 384 kbps /
Релиз от: MegaPeer
General
Complete name : E:\Kubo.and.the.Two.Strings.2016.BDRip.1.41Gb.D.MegaPeer.avi
Format : AVI
Format/Info : Audio Video Interleave
File size : 1.41 GiB
Duration : 1 h 41 min
Overall bit rate : 1 992 kb/s

Video
ID : 0
Format : MPEG-4 Visual
Format profile : Advanced Simple@L5
Format settings, BVOP : 1
Format settings, QPel : No
Format settings, GMC : No warppoints
Format settings, Matrix : Custom
Codec ID : XVID
Codec ID/Hint : XviD
Duration : 1 h 41 min
Bit rate : 1 521 kb/s
Width : 720 pixels
Height : 304 pixels
Display aspect ratio : 2.35:1
Frame rate : 23.976 (24000/1001) FPS
Color space : YUV
Chroma subsampling : 4:2:0
Bit depth : 8 bits
Scan type : Progressive
Compression mode : Lossy
Bits/(Pixel*Frame) : 0.290
Stream size : 1.08 GiB (76%)
Writing library : XviD 73

Audio
ID : 1
Format : AC-3
Format/Info : Audio Coding 3
Mode extension : CM (complete main)
Format settings, Endianness : Big
Codec ID : 2000
Duration : 1 h 41 min
Bit rate mode : Constant
Bit rate : 384 kb/s
Channel(s) : 6 channels
Channel positions : Front: L C R, Side: L R, LFE
Sampling rate : 48.0 kHz
Frame rate : 31.250 FPS (1536 spf)
Compression mode : Lossy
Stream size : 279 MiB (19%)
Alignment : Aligned on interleaves
Title : iTunes
pb.wtf



Скачать Кубо. Легенда о самурае через торрент http://i2.imageban.ru/out/2016/12/15/be072a993af84c736eeea5a570207708.jpg Скачать фильм Кубо. Легенда о самурае через торрент бесплантно в хорошем качестве Описание: Кубо - наследник великого рода, но когда возвратились духи прошлого, жаждущие мести, на его защиту отважилась встать лишь ... 9 10 11
Info! Золотая раздача, скачанное не засчитывается.
Торрент: Зарегистрирован [2016-12-15 07:07] · скачан: 698 раз
Статус: √ проверено
Размер: 1.41 GB
Как cкачать? Как скачать Кубо. Легенда о самурае через торрент | qTorrent

% Раздел Тема Автор DL S | L
3D Мультфильмы [ 13.66 GB ] Кубо. Легенда о самурае в 3Д / Kubo and the Two Strings 3D [2016 Мультфильм BDrip 1080p] DUB / OverUnder / Вертикальная стереопара serega768 Скачать
1 | 0
Зарубежные Мультфильмы (BDRip 1080p, 720p, Blu-ray, BD-Remux) [ 4.03 GB ] Кубо. Легенда о самурае / Kubo and the Two Strings [2016 мультфильм BDRip 720p] - [] - ExKinoRay Enigma2010 Скачать
1 | 0
Иностранные мультфильмы [ 1.46 GB ] Кубо. Легенда о самурае / Kubo and the Two Strings [2016 мультфильм BDRip] - [] Twi7ter Скачать
1 | 0
Иностранные мультфильмы [ 1.95 GB ] Кубо. Легенда о самурае / Kubo and the Two Strings [2016 мультфильм HDRip-AVC] - [] - ExKinoRay Enigma2010 Скачать
1 | 0
Зарубежные Мультфильмы (BDRip 1080p, 720p, Blu-ray, BD-Remux) [ 10.34 GB ] Кубо. Легенда о самурае / Kubo and the Two Strings [2016 мультфильм BDRip 1080p] - -Lexx- Скачать
1 | 0

28-11-2019 20:33  

Отключить всю рекламу на сайте

03-01-2017 09:56 Кубо. Легенда о самурае Скачать торрент  

клевый мульт! Детям понравился,родителям тоже! pb.wtf



    Дорогой пользователь! Огромная просьба, поблагодарите релизера, оцените раздачу и оставьте свои комментарий, если Вы скачали Кубо. Легенда о самурае через торрент бесплатно! Внесите свою лепту в развитие PiratBit!
    Комментировать посты могут только пользователи прошедшие не сложную регистрацию
    Показать сообщения:    

    Кубо. Легенда о самурае через торрент
    Скачать бесплатно Кубо. Легенда о самурае
    Кубо. Легенда о самурае скачать торрент
    Кубо. Легенда о самурае смотреть онлайн
    Cкачать фильм Кубо. Легенда о самурае бесплатно
    Кубо. Легенда о самурае скачать торрент в хорошем качестве
    Кубо. Легенда о самурае смотреть онлайн бесплатно в хорошем качестве


    Вы не можете начинать темы
    Вы не можете отвечать на сообщения
    Вы не можете редактировать свои сообщения
    Вы не можете удалять свои сообщения
    Вы не можете голосовать в опросах
    Вы не можете прикреплять файлы к сообщениям
    Вы можете скачивать файлы