Ссылка на приватное зеркало нашего сайта всего за 1$. Внимание количество ограничено!!!

2 сезон

iTunes

1 сезон

1

iTunes

iTunes

iTunes

1 сезон

RePack

30

ИГРА 18+

pack

ВАЖНО

!!Акция!!

Alien_RageХит недели

RePack

MK11
pack

Забери бонус

RePack

jed

!!Акция!!

Alien_Rage

RePack

fifa19

RePack

Assassins Creed: Odyssey

RePack

NEED FOR SPEED™ PAYBACK

4 сезон

9 сезон

Бесстыжие 9 сезон

Все сериалы

все сериалы на PB.wtf

RePack

FAR CRY 5
  

Человек с золотой рукой / The Man with the Golden Arm (Отто Премингер) [1955, драма, мелодрама, BDRip 720p by msltel] 2 x DVO pb.wtf

Человек с золотой рукой через торрент pb.wtf

Размер: 4.6 GB | Добавлен: 3 года 10 мес. назад | Торрент скачан:7 раз
Скачать  

15-12-2016 07:18 Человек с золотой рукой Скачать торрент  

Название: Человек с золотой рукой
Оригинальное название: The Man with the Golden Arm
Год выпуска: 1955
Страна: США
Жанр: драма, мелодрама
Продолжительность: 01:59:14
Перевод: профессиональный двухголосый

Режиссёр: Отто Премингер

В ролях: Фрэнк Синатра, Элинор Паркер, Ким Новак, Арнольд Стэндж, Даррен МакГэвин, Роберт Штраусс, Джон Конте, Доро Меранде, Джордж Е. Стоун, Джордж Мэтьюс, Леонид Кински, Эмиль Мейер, Джаред Бэркли, Леонард Бремен, Пол Э. Барнс

Описание: Фрэнки Макине, мастер карточной игры, возвращается домой из наркоцентра после лечения. Он мечтает начать новую жизнь, бросить игру и стать джазовым барабанщиком. Но его прикованная к инвалидной коляске жена Зош требует, чтобы всё осталось по-старому, его бывший хозяин шантажом заставляет его вновь сесть за карты, а наркодилер соблазняет бесплатным уколом. И только его бывшая любовница Молли поддерживает в нём надежду на перемены и веру в себя. Обиду, злость, ревность, наркотические ломки предстоит пережить Фрэнки, чтобы приблизиться к своей мечте...



Качество: BDRip 720p
Формат: MKV
Видео: MPEG-4 AVC, 4947 Кбит/с, 990x720, 24 кадра/с
Аудио 1: русский, AC3, 192 kbps, 2 ch, 48 kHz [профессиональный двухголосый, СВ Дубль по заказу ГТРК Культура]
Аудио 2: русский, AC3, 192 kbps, 2 ch, 48 kHz [профессиональный двухголосый]
Аудио 3: английский, AC3, 192 kbps, 1 ch, 48 kHz [оригинал]
Субтитры: английские
Имеются поименованные главы/чаптеры.
Общее
Уникальный идентификатор : 183620257859314216139839361236878755014 (0x8A23F9AD4F1C6D6EADD385C0F6B004C6)
Полное имя : D:\Video\Человек с золотой рукой.1955.BDRip.720p by msltel.mkv
Формат : Matroska
Версия формата : Version 4 / Version 2
Размер файла : 4,60 Гбайт
Продолжительность : 1 ч. 59 м.
Общий поток : 5525 Кбит/сек
Название фильма : Rip by msltel
Дата кодирования : UTC 2016-12-14 16:44:22
Программа кодирования : mkvmerge v8.2.0 ('World of Adventure') 64bit
Библиотека кодирования : libebml v1.3.1 + libmatroska v1.4.2

Видео
Идентификатор : 1
Формат : AVC
Формат/Информация : Advanced Video Codec
Профиль формата : High@L4.1
Параметр CABAC формата : Да
Параметр ReFrames формата : 9 кадров
Идентификатор кодека : V_MPEG4/ISO/AVC
Продолжительность : 1 ч. 59 м.
Битрейт : 4947 Кбит/сек
Ширина : 990 пикселей
Высота : 720 пикселей
Соотношение сторон : 1,375
Режим частоты кадров : Постоянный
Частота кадров : 24,000 кадра/сек
Цветовое пространство : YUV
Субдискретизация насыщенности : 4:2:0
Битовая глубина : 8 бит
Тип развёртки : Прогрессивная
Бит/(Пиксели*Кадры) : 0.289
Размер потока : 4,12 Гбайт (90%)
Библиотека кодирования : x264 core 146 r2538 121396c
Настройки программы : cabac=1 / ref=9 / deblock=1:-3:-3 / analyse=0x3:0x113 / me=umh / subme=9 / psy=1 / psy_rd=1.00:0.15 / mixed_ref=1 / me_range=32 / chroma_me=1 / trellis=1 / 8x8dct=1 / cqm=0 / deadzone=21,11 / fast_pskip=0 / chroma_qp_offset=-3 / threads=6 / lookahead_threads=1 / sliced_threads=0 / nr=0 / decimate=1 / interlaced=0 / bluray_compat=0 / constrained_intra=0 / bframes=14 / b_pyramid=2 / b_adapt=2 / b_bias=0 / direct=1 / weightb=0 / open_gop=0 / weightp=2 / keyint=230 / keyint_min=23 / scenecut=40 / intra_refresh=0 / rc_lookahead=40 / rc=crf / mbtree=0 / crf=19.3 / qcomp=0.60 / qpmin=0 / qpmax=69 / qpstep=4 / vbv_maxrate=50000 / vbv_bufsize=62500 / crf_max=0.0 / nal_hrd=none / filler=0 / ip_ratio=1.40 / pb_ratio=1.30 / aq=1:1.00
Язык : English
Default : Да
Forced : Нет

Аудио #1
Идентификатор : 2
Формат : AC-3
Формат/Информация : Audio Coding 3
Расширение режима : CM (complete main)
Параметр Endianness формата : Big
Идентификатор кодека : A_AC3
Продолжительность : 1 ч. 59 м.
Вид битрейта : Постоянный
Битрейт : 192 Кбит/сек
Каналы : 2 канала
Расположение каналов : Front: L R
Частота : 48,0 КГц
Частота кадров : 31,250 кадров/сек (1536 spf)
Метод сжатия : С потерями
Размер потока : 164 Мбайт (3%)
Заголовок : DVO (СВ Дубль по заказу ГТРК Культура)
Язык : Russian
Default : Да
Forced : Нет

Аудио #2
Идентификатор : 3
Формат : AC-3
Формат/Информация : Audio Coding 3
Расширение режима : CM (complete main)
Параметр Endianness формата : Big
Идентификатор кодека : A_AC3
Продолжительность : 1 ч. 59 м.
Вид битрейта : Постоянный
Битрейт : 192 Кбит/сек
Каналы : 2 канала
Расположение каналов : Front: L R
Частота : 48,0 КГц
Частота кадров : 31,250 кадров/сек (1536 spf)
Метод сжатия : С потерями
Размер потока : 164 Мбайт (3%)
Заголовок : DVO
Язык : Russian
Default : Нет
Forced : Нет

Аудио #3
Идентификатор : 4
Формат : AC-3
Формат/Информация : Audio Coding 3
Расширение режима : CM (complete main)
Параметр Endianness формата : Big
Идентификатор кодека : A_AC3
Продолжительность : 1 ч. 59 м.
Вид битрейта : Постоянный
Битрейт : 192 Кбит/сек
Каналы : 1 канал
Расположение каналов : Front: C
Частота : 48,0 КГц
Частота кадров : 31,250 кадров/сек (1536 spf)
Метод сжатия : С потерями
Размер потока : 164 Мбайт (3%)
Заголовок : original
Язык : English
Default : Нет
Forced : Нет

Текст
Идентификатор : 5
Формат : UTF-8
Идентификатор кодека : S_TEXT/UTF8
Идентификатор кодека/Информация : UTF-8 Plain Text
Продолжительность : 1 ч. 55 м.
Битрейт : 68 бит/сек
Count of elements : 1895
Размер потока : 57,5 Кбайт (0%)
Заголовок : английские
Язык : English
Default : Нет
Forced : Нет

Меню
00:00:00.000 : en:01. Credits
00:01:38.000 : en:02. Franckie's Back
00:06:35.667 : en:03. Home to Zosh
00:11:37.708 : en:04. Meeting Molly
00:16:43.875 : en:05. Taking a Walk
00:18:43.083 : en:06. Schwiefka's Dirty Dealing
00:25:10.333 : en:07. Shaking Hands
00:27:53.250 : en:08. You and Me and Zosh
00:31:59.000 : en:09. Don't Let Me Down
00:36:31.708 : en:10. The Monkey Never Dies
00:40:33.292 : en:11. Giver Her Headache
00:45:36.208 : en:12. Don't Shut Me Out
00:50:53.958 : en:13. Drummer's Dreams
00:57:38.208 : en:14. Why Can't It Be Like Always?
01:02:10.083 : en:15. Squeeze Play
01:06:39.083 : en:16. Molly's Had Enough
01:10:13.708 : en:17. Too Good a Dealer
01:15:19.208 : en:18. Just a Little Longer
01:20:15.042 : en:19. Dealt Out of the Game
01:24:39.417 : en:20. The Audition
01:28:19.708 : en:21. Pushing the Pusher
01:30:49.750 : en:22. Accessory to Murder
01:35:35.208 : en:23. Cold Turkey Dangers
01:40:30.042 : en:24. Withdrawl
01:44:01.833 : en:25. You'll Never Get Him
01:46:27.333 : en:26. Make Me Warm
01:49:54.333 : en:27. Settled Into Place
01:53:20.625 : en:28. Goodbye, Zosh
pb.wtf



Скачать Человек с золотой рукой через торрент http://s011.radikal.ru/i315/1612/07/430c6b249c10.jpg Скачать фильм Человек с золотой рукой через торрент бесплантно в хорошем качестве Описание: Фрэнки Макине, мастер карточной игры, возвращается домой из наркоцентра после лечения. Он мечтает начать новую жизнь, бросить ... 10 10 2
Info! Золотая раздача, скачанное не засчитывается.
Торрент: Зарегистрирован [2016-12-15 07:18] · скачан: 7 раз
Статус: √ проверено
Размер: 4.6 GB
Как cкачать? Как скачать Человек с золотой рукой через торрент | qTorrent

% Раздел Тема Автор DL S | L
Фильмы [HD 720p, 1080p] (Хороший звук DUB, MVO) [ 11.58 GB ] Человек с золотой рукой / The Man with the Golden Arm [1955 BDRip 1080p by msltel] 2 x DVO msltel Скачать
1 | 0

28-11-2019 20:33  

Отключить всю рекламу на сайте

    Дорогой пользователь! Огромная просьба, поблагодарите релизера, оцените раздачу и оставьте свои комментарий, если Вы скачали Человек с золотой рукой через торрент бесплатно! Внесите свою лепту в развитие PiratBit!
    Комментировать посты могут только пользователи прошедшие не сложную регистрацию
    Показать сообщения:    

    Человек с золотой рукой через торрент
    Скачать бесплатно Человек с золотой рукой
    Человек с золотой рукой скачать торрент
    Человек с золотой рукой смотреть онлайн
    Cкачать фильм Человек с золотой рукой бесплатно
    Человек с золотой рукой скачать торрент в хорошем качестве
    Человек с золотой рукой смотреть онлайн бесплатно в хорошем качестве


    Вы не можете начинать темы
    Вы не можете отвечать на сообщения
    Вы не можете редактировать свои сообщения
    Вы не можете удалять свои сообщения
    Вы не можете голосовать в опросах
    Вы не можете прикреплять файлы к сообщениям
    Вы можете скачивать файлы