2 сезон

iTunes

1 сезон

1

iTunes

iTunes

iTunes

1 сезон

RePack

30

ИГРА 18+

pack

ВАЖНО

!!Акция!!

Alien_RageХит недели

RePack

MK11
pack

Забери бонус

RePack

jed

!!Акция!!

Alien_Rage

RePack

fifa19

RePack

Assassins Creed: Odyssey

RePack

NEED FOR SPEED™ PAYBACK

4 сезон

9 сезон

Бесстыжие 9 сезон

Все сериалы

все сериалы на PB.wtf

RePack

FAR CRY 5
  

Пацики / 1-10 серии из 10 (Руслан Ханумак, Денис Тарасов (III)) [2016 г., комедия, WEB-DLRip-AVC] pb.wtf

Пацики через торрент pb.wtf

Размер: 5.1 GB | Добавлен: 3 года 10 мес. назад | Торрент скачан:95 раз
Скачать  

15-12-2016 08:33 Пацики Скачать торрент  

Пацики
Год выпуска: 2016
Страна: Украина
Жанр: комедия
Всего серий: 10
Продолжительность: 10 х ~ 00:45:00
Перевод: Не требуется [Русский]
Субтитры: отсутствуют

Режиссер: Руслан Ханумак, Денис Тарасов (III)



В ролях:

Руслан Ханумак, Андрей Зрожевский, Андрей Коляда (II), Виталий Гончаренко, Дмитрий Ковалёв (III), Виктор Иваницкий, Эльдар Кабиров, Елена Турбал, Анна Саливанчук, Михаил Кукуюк, Виталий Салий, Сергей Булин, Арам Арзуманян, Андрей Исаенко, Станислав Боклан, Владимир Горянский, Александр Гетманский, Леся Самаева, Дмитрий Лаленков, Ирина Мак, Сергей Стрельников, Василий Вирастюк, Вадим Мичковский, Дмитрий Мазнев, Илья Прокопив

Описание:

История ребят из провинции, которые приехали покорять своими талантами столицу, сверкающую неоновыми огнями витрин и дорогими иномарками. Их цель труднодостижима, ведь столичная жизнь, как известно, бывает очень неприветливой. Герои сериала проходят свои испытания с большим чувством юмора, стараются выпутаться с честью и без потерь из безвыходных ситуаций...

Качество: WEB-DLRip-AVC
Формат: MKV
Видео кодек: H.264
Аудио кодек: AC3

Видео: 1024x576 (16:9), 25 fps, AVC MPEG-4 (x264), High@L4.1, 1600 Кbps avg, 0.109 bit/pixe
Аудио#1: 48 kHz, АС3, 2/0 (L,R), ~192.00 kbps avg
Общее
Уникальный идентификатор : 233478697453450135121133707748631428250 (0xAFA65C89F79BE7CC991AAF3F7B88BC9A)
Полное имя : C:\Paciki.(2016).WEB-DLRip.(AVC).\01.Paciki.2016.WEB-DLRip.(AVC).mkv
Формат : Matroska
Версия формата : Version 2
Размер файла : 534 Мбайт
Продолжительность : 41 м. 40 с.
Общий поток : 1793 Кбит/сек
Дата кодирования : UTC 2016-11-29 01:49:57
Программа кодирования : mkvmerge v6.1.0 ('Old Devil') built on Mar 4 2013 09:10:42
Библиотека кодирования : libebml v1.3.0 + libmatroska v1.4.0

Видео
Идентификатор : 1
Формат : AVC
Формат/Информация : Advanced Video Codec
Профиль формата : High@L4.1
Параметр CABAC формата : Да
Параметр ReFrames формата : 9 кадров
Идентификатор кодека : V_MPEG4/ISO/AVC
Продолжительность : 41 м. 40 с.
Битрейт : 1600 Кбит/сек
Ширина : 1024 пикселя
Высота : 576 пикселей
Соотношение сторон : 16:9
Режим частоты кадров : Постоянный
Частота кадров : 25,000 кадров/сек
Цветовое пространство : YUV
Субдискретизация насыщенности : 4:2:0
Битовая глубина : 8 бит
Тип развёртки : Прогрессивная
Бит/(Пиксели*Кадры) : 0.109
Размер потока : 467 Мбайт (87%)
Библиотека кодирования : x264 core 130 r2273 b3065e6
Настройки программы : cabac=1 / ref=9 / deblock=1:-2:-1 / analyse=0x3:0x133 / me=umh / subme=9 / psy=1 / psy_rd=1.00:0.15 / mixed_ref=1 / me_range=32 / chroma_me=1 / trellis=2 / 8x8dct=1 / cqm=0 / deadzone=21,11 / fast_pskip=0 / chroma_qp_offset=-3 / threads=6 / lookahead_threads=1 / sliced_threads=0 / nr=0 / decimate=1 / interlaced=0 / bluray_compat=0 / constrained_intra=0 / bframes=9 / b_pyramid=2 / b_adapt=2 / b_bias=0 / direct=1 / weightb=1 / open_gop=0 / weightp=2 / keyint=250 / keyint_min=25 / scenecut=40 / intra_refresh=0 / rc_lookahead=40 / rc=2pass / mbtree=1 / bitrate=1600 / ratetol=1.0 / qcomp=0.60 / qpmin=0 / qpmax=69 / qpstep=4 / cplxblur=20.0 / qblur=0.5 / ip_ratio=1.40 / aq=2:1.00
Default : Да
Forced : Нет
Цветовой диапазон : Limited
Основные цвета : BT.709
Характеристики трансфера : BT.709
Коэффициенты матрицы : BT.709

Аудио
Идентификатор : 2
Формат : AC-3
Формат/Информация : Audio Coding 3
Расширение режима : CM (complete main)
Параметр Endianness формата : Big
Идентификатор кодека : A_AC3
Продолжительность : 41 м. 40 с.
Вид битрейта : Постоянный
Битрейт : 192 Кбит/сек
Каналы : 2 канала
Расположение каналов : Front: L R
Частота : 48,0 КГц
Частота кадров : 31,250 кадров/сек (1536 spf)
Битовая глубина : 16 бит
Метод сжатия : С потерями
Размер потока : 57,2 Мбайт (11%)
Default : Да
Forced : Нет
скриншот   скриншот   скриншот   скриншот  
pb.wtf



Скачать Пацики через торрент http://pic1.kartinco.top/images/11/44s6o.jpg Скачать фильм Пацики через торрент бесплантно в хорошем качестве Описание: История ребят из провинции, которые приехали покорять своими талантами столицу, сверкающую неоновыми огнями витрин и дорогими ... 10 10 7
Торрент: Зарегистрирован [2016-12-15 08:33] · скачан: 95 раз
Статус: √ проверено
Размер: 5.1 GB
Как cкачать? Как скачать Пацики через торрент | qTorrent

28-11-2019 20:33  

Отключить всю рекламу на сайте

    Дорогой пользователь! Огромная просьба, поблагодарите релизера, оцените раздачу и оставьте свои комментарий, если Вы скачали Пацики через торрент бесплатно! Внесите свою лепту в развитие PiratBit!
    Комментировать посты могут только пользователи прошедшие не сложную регистрацию
    Показать сообщения:    

    Пацики через торрент
    Скачать бесплатно Пацики
    Пацики скачать торрент
    Пацики смотреть онлайн
    Cкачать фильм Пацики бесплатно
    Пацики скачать торрент в хорошем качестве
    Пацики смотреть онлайн бесплатно в хорошем качестве


    Вы не можете начинать темы
    Вы не можете отвечать на сообщения
    Вы не можете редактировать свои сообщения
    Вы не можете удалять свои сообщения
    Вы не можете голосовать в опросах
    Вы не можете прикреплять файлы к сообщениям
    Вы можете скачивать файлы