новый адрес
Мега распродажа FORZA HORIZON 4 ULTIMATE+ВСЕ DLC+ОНЛАЙН всего за 499р. 349 руб. (супер цена). Внимание количество ограничено!!!

iTunes

1+1

iTunes

мы

iTunes

1

iTunes

Чернобыль

iTunes

Ральф против интернета

Лицензия

ПШазам

Лицензия

Игра престолов

Лицензия

30
pack

ВАЖНО

!!Акция!!

Alien_RageХит недели

RePack

Resident Evil 21

ИГРА 18+

pack

RePack

Metro:Exodus

!!Акция!!

Alien_Rage

RePack

fifa19

RePack

Assassins Creed: Odyssey

RePack

NEED FOR SPEED™ PAYBACK

3 сезон

9 сезон

Бесстыжие 9 сезон

Все сериалы

все сериалы на PB.wtf

RePack

FAR CRY 5
Ребята, катастрофически не хватает 1900р. для оплаты серверов за Октябрь (всвязи с блокировками трафик упал в 3 раза), 1-2р., выручайте.
  

Невеста (Григорий Никулин, Владимир Шредель) [1956, СССР, драма, DVDRip от AVP Studio] pb.wtf

Невеста через торрент pb.wtf

Размер: 1.09 GB | Добавлен: 2 года 11 мес. назад | Торрент скачан:6 раз
Скачать  

15-12-2016 09:12 Невеста Скачать торрент  

Невеста
Страна: СССР
Производство: Ленфильм

Жанр: драма
Год выпуска: 1956
Продолжительность: 01:21:54

Перевод: Не требуется
Cубтитры: нет
Оригинальная аудиодорожка: русский

Режиссер: Григорий Никулин, Владимир Шредель

В ролях:
Татьяна Пилецкая, Юрий Пузырёв, Олег Басилашвили, Ольга Казико, Роза Свердлова, Фёдор Никитин, Борис Коковкин, Анна Шатрова...
Полный список актёров

Описание:
По одноименному рассказу А.П.Чехова.
Провинциальный городок дореволюционной России. Марфа Михайловна Шумилина выдает свою внучку Надю за Андрея Андреевича, сына священника. Он недурен, играет на скрипке и нравится всем барышням. Надя, кажется, любит его и вполне счастлива. В самый разгар приготовления свадьбы из Москвы приезжает поправить свое здоровье Саша, воспитанник Марфы Михайловны. Он много времени проводит с Надей. Вскоре девушку покидает безмятежное спокойствие. Ее начинает угнетать мещанское существование близких - и она уезжает в Москву...

Источник: DVD5 R5
Качество видео: DVDRip
Формат видео: AVI

Видео: 688x512 (4:3), 25 fps, XviD ~ 1699 kbps avg, 0.193 bit/pixel
Аудио: 48 kHz, Dolby Digital AC3 2.0, 192 kbps

Раздача от:
Общее
Полное имя : Nevesta.1956.DVDRip_[New-team]_by_AVP_Studio.avi
Формат : AVI
Формат/Информация : Audio Video Interleave
Размер файла : 1,09 Гбайт
Продолжительность : 1 ч. 21 м.
Общий поток : 1901 Кбит/сек
Программа кодирования : VirtualDubMod 1.5.10.3 | www.virtualdub-fr.org || (build 2550/release)
Библиотека кодирования : VirtualDubMod build 2550/release

Видео
Идентификатор : 0
Формат : MPEG-4 Visual
Профиль формата : Advanced Simple@L5
Параметр BVOP формата : 1
Параметр QPel формата : Нет
Параметр GMC формата : Без точки перехода
Параметр матрицы формата : Выборочная
Идентификатор кодека : XVID
Идентификатор кодека/Подсказка : XviD
Продолжительность : 1 ч. 21 м.
Битрейт : 1699 Кбит/сек
Ширина : 688 пикселей
Высота : 512 пикселей
Соотношение сторон : 4:3
Частота кадров : 25,000 кадров/сек
Цветовое пространство : YUV
Субдискретизация насыщенности : 4:2:0
Битовая глубина : 8 бит
Тип развёртки : Прогрессивная
Метод сжатия : С потерями
Бит/(Пиксели*Кадры) : 0.193
Размер потока : 995 Мбайт (89%)
Библиотека кодирования : XviD 1.2.1 (UTC 2008-12-04)

Аудио
Идентификатор : 1
Формат : AC-3
Формат/Информация : Audio Coding 3
Расширение режима : CM (complete main)
Параметр Endianness формата : Big
Идентификатор кодека : 2000
Продолжительность : 1 ч. 21 м.
Вид битрейта : Постоянный
Битрейт : 192 Кбит/сек
Каналы : 2 канала
Расположение каналов : Front: L R
Частота : 48,0 КГц
Частота кадров : 31,250 кадров/сек (1536 spf)
Битовая глубина : 16 бит
Метод сжатия : С потерями
Размер потока : 112 Мбайт (10%)
Выравнивание : Разделение по промежуткам
Продолжительность промежутка : 40 мс. (1,00 видеокадр)
Время предзагрузки промежутка : 500 мс
pb.wtf



Скачать Невеста через торрент http://s017.radikal.ru/i413/1612/42/ddbe5c410795.png Скачать фильм Невеста через торрент бесплантно в хорошем качестве Описание:По одноименному рассказу А.П.Чехова.Провинциальный городок дореволюционной России. Марфа Михайловна Шумилина выдает свою внучку ... 5 10 1
Info! Золотая раздача, скачанное не засчитывается.
Торрент: Зарегистрирован [2016-12-15 09:12] · скачан: 6 раз
Статус: √ проверено
Размер: 1.09 GB
Как cкачать? Как скачать Невеста через торрент | qTorrent

% Раздел Тема Автор DL S | L
Шерлок [ 5.22 GB ] Шерлок : Безобразная невеста / Sherlock: The Abominable Bride HDTV 1080i / Первый канал / Sub DEVI Скачать
1 | 0
Фильмы без перевода [ 25.93 GB ] Шерлок: Безобразная невеста / Sherlock: The Abominable Bride [2016 BluRay 1080p] [ENG] + [Sub] killermax2013 Скачать
1 | 0
Шерлок [ 4.37 GB ] Шерлок: Безобразная невеста / Sherlock: The Abominable Bride [2015 BDRip 720p от _denis_100 / NNNB] [Первый канал] _denis_100 Скачать
1 | 0
Русские порно ролики [ 378 MB ] Пустил по кругу свою обалденную невесту [2012 DP GangBang AnalOralTeens SATRip] Azazele Скачать
2 | 0
Шерлок [ 1.6 GB ] Шерлок: Безобразная невеста / Sherlock: The Abominable Bride [2016 WEBRip-AVC] killermax2013 Скачать
1 | 0
Шерлок [ 1.2 GB ] Шерлок: Безобразная невеста / Sherlock: The Abominable Bride SATRip / Первый канал DEVI Скачать
1 | 0
Порно фильмы с сюжетом [ 1.2 GB ] Невеста на заказ. / La Sposa Abusata. [2013 Anal Feature. DVDRip Оригинал] Pir@tya2010 Скачать
1 | 0


>> Регистрируемся здесь <<






Отзывы и комментарии о схеме читаем и пишем здесь: ---> Отзывы и комментарии о схеме

Новые благодарочки в телеграм довольных пользователей:
скриншот   скриншот   скриншот   скриншот   скриншот
    Дорогой пользователь! Огромная просьба, поблагодарите релизера, оцените раздачу и оставьте свои комментарий, если Вы скачали Невеста через торрент бесплатно! Внесите свою лепту в развитие PiratBit!
    Комментировать посты могут только пользователи прошедшие не сложную регистрацию
    Показать сообщения:    

    Невеста через торрент
    Скачать бесплатно Невеста
    Невеста скачать торрент
    Невеста смотреть онлайн
    Cкачать фильм Невеста бесплатно
    Невеста скачать торрент в хорошем качестве
    Невеста смотреть онлайн бесплатно в хорошем качестве


    Вы не можете начинать темы
    Вы не можете отвечать на сообщения
    Вы не можете редактировать свои сообщения
    Вы не можете удалять свои сообщения
    Вы не можете голосовать в опросах
    Вы не можете прикреплять файлы к сообщениям
    Вы можете скачивать файлы