новый адрес
Мега распродажа FORZA HORIZON 4 ULTIMATE+ВСЕ DLC+ОНЛАЙН всего за 499р. 349 руб. (супер цена). Внимание количество ограничено!!!

iTunes

1+1

iTunes

мы

iTunes

1

iTunes

Чернобыль

iTunes

Ральф против интернета

Лицензия

ПШазам

Лицензия

Оно 2

Лицензия

30
pack

ВАЖНО

!!Акция!!

Alien_RageХит недели

RePack

Resident Evil 21

ИГРА 18+

pack

RePack

Metro:Exodus

!!Акция!!

Alien_Rage

RePack

fifa19

RePack

Assassins Creed: Odyssey

RePack

NEED FOR SPEED™ PAYBACK

3 сезон

9 сезон

Бесстыжие 9 сезон

Все сериалы

все сериалы на PB.wtf

RePack

FAR CRY 5
Ребята, катастрофически не хватает 1900р. для оплаты серверов за Октябрь (всвязи с блокировками трафик упал в 3 раза), 1-2р., выручайте.
  

Они были первыми (Юрий Егоров) [1956, СССР, драма, военный, DVDRip от AVP Studio] pb.wtf

Они были первыми через торрент pb.wtf

Размер: 1.46 GB | Добавлен: 2 года 11 мес. назад | Торрент скачан:15 раз
Скачать  

16-12-2016 08:09 Они были первыми Скачать торрент  

Они были первыми
Страна: СССР
Производство: к/с им. М.Горького

Жанр: драма, военный
Год выпуска: 1956
Продолжительность: 01:34:41

Перевод: Не требуется
Cубтитры: нет
Оригинальная аудиодорожка: русский

Режиссер: Юрий Егоров

В ролях:
Георгий Юматов, Лилиана Алешникова, Марк Бернес, Михаил Ульянов, Александр Толстых, Виктор Терехов, Михаил Державин, Нина Крачковская, Виктор Брежнев, Сергей Голованов, Виктор Степанов (III), Алексей Бахарь, Михаил Кондратьев...
Полный список актёров

Описание:
1918 год. Тревожно в Петрограде. Все теснее сжимается вокруг революционного города вражеское кольцо. Уходят на фронт рабочие полки. Борьба с врагами Советской власти идёт не только на подступах к городу, но и в тылу. В это суровое и трудное для революции время по воле партии большевиков на рабочих окраинах создаются комсомольские организации. Первыми в комсомол вступают молодые рабочие — Степан Барабаш, Саня Чижик, Глаша, Кузьма. После некоторых колебаний и раздумий комсомольцами становятся крестьянский паренёк Фёдор, приехавший из глухой деревни на заработки в Питер, и гимназист Женя Горовский. В дни напряжённых боёв молодые патриоты вместе с отрядами рабочей гвардии отправляются на защиту Петрограда…

Источник: DVD5 R5
Качество видео: DVDRip
Формат видео: AVI

Видео: 688x512 (4:3), 25 fps, XviD ~ 2002 kbps avg, 0.227 bit/pixel
Аудио: 48 kHz, Dolby Digital AC3 2.0, 192 kbps

Раздача от:
Общее
Полное имя : Oni.byli.pervymi.1956.DVDRip_[New-team]_by_AVP_Studio.avi
Формат : AVI
Формат/Информация : Audio Video Interleave
Размер файла : 1,46 Гбайт
Продолжительность : 1 ч. 34 м.
Общий поток : 2204 Кбит/сек
Программа кодирования : VirtualDubMod 1.5.10.3 | www.virtualdub-fr.org || (build 2550/release)
Библиотека кодирования : VirtualDubMod build 2550/release

Видео
Идентификатор : 0
Формат : MPEG-4 Visual
Профиль формата : Advanced Simple@L5
Параметр BVOP формата : 1
Параметр QPel формата : Нет
Параметр GMC формата : Без точки перехода
Параметр матрицы формата : Выборочная
Идентификатор кодека : XVID
Идентификатор кодека/Подсказка : XviD
Продолжительность : 1 ч. 34 м.
Битрейт : 2002 Кбит/сек
Ширина : 688 пикселей
Высота : 512 пикселей
Соотношение сторон : 4:3
Частота кадров : 25,000 кадров/сек
Цветовое пространство : YUV
Субдискретизация насыщенности : 4:2:0
Битовая глубина : 8 бит
Тип развёртки : Прогрессивная
Метод сжатия : С потерями
Бит/(Пиксели*Кадры) : 0.227
Размер потока : 1,32 Гбайт (91%)
Библиотека кодирования : XviD 1.2.1 (UTC 2008-12-04)

Аудио
Идентификатор : 1
Формат : AC-3
Формат/Информация : Audio Coding 3
Расширение режима : CM (complete main)
Параметр Endianness формата : Big
Идентификатор кодека : 2000
Продолжительность : 1 ч. 34 м.
Вид битрейта : Постоянный
Битрейт : 192 Кбит/сек
Каналы : 2 канала
Расположение каналов : Front: L R
Частота : 48,0 КГц
Частота кадров : 31,250 кадров/сек (1536 spf)
Битовая глубина : 16 бит
Метод сжатия : С потерями
Размер потока : 130 Мбайт (9%)
Выравнивание : Разделение по промежуткам
Продолжительность промежутка : 40 мс. (1,00 видеокадр)
Время предзагрузки промежутка : 500 мс
pb.wtf



Скачать Они были первыми через торрент http://s020.radikal.ru/i710/1612/3a/001ea2dd223a.png Скачать фильм Они были первыми через торрент бесплантно в хорошем качестве Описание:1918 год. Тревожно в Петрограде. Все теснее сжимается вокруг революционного города вражеское кольцо. Уходят на фронт рабочие ... 10 10 1
Info! Золотая раздача, скачанное не засчитывается.
Торрент: Зарегистрирован [2016-12-16 08:09] · скачан: 15 раз
Статус: √ проверено
Размер: 1.46 GB
Как cкачать? Как скачать Они были первыми через торрент | qTorrent

% Раздел Тема Автор DL S | L
Кино СССР [ 1.46 GB ] Они были первыми [1956 СССР военный DVDRip-AVC от AVP Studio] AVP Studio Скачать
1 | 0
Кино СССР [ 744 MB ] Они были первыми [1956 СССР военный DVDRip от AVP Studio] AVP Studio Скачать
1 | 0


>> Регистрируемся здесь <<






Отзывы и комментарии о схеме читаем и пишем здесь: ---> Отзывы и комментарии о схеме

Новые благодарочки в телеграм довольных пользователей:
скриншот   скриншот   скриншот   скриншот   скриншот
    Дорогой пользователь! Огромная просьба, поблагодарите релизера, оцените раздачу и оставьте свои комментарий, если Вы скачали Они были первыми через торрент бесплатно! Внесите свою лепту в развитие PiratBit!
    Комментировать посты могут только пользователи прошедшие не сложную регистрацию
    Показать сообщения:    

    Они были первыми через торрент
    Скачать бесплатно Они были первыми
    Они были первыми скачать торрент
    Они были первыми смотреть онлайн
    Cкачать фильм Они были первыми бесплатно
    Они были первыми скачать торрент в хорошем качестве
    Они были первыми смотреть онлайн бесплатно в хорошем качестве


    Вы не можете начинать темы
    Вы не можете отвечать на сообщения
    Вы не можете редактировать свои сообщения
    Вы не можете удалять свои сообщения
    Вы не можете голосовать в опросах
    Вы не можете прикреплять файлы к сообщениям
    Вы можете скачивать файлы