2 сезон

iTunes

1 сезон

1

iTunes

iTunes

iTunes

1 сезон

RePack

30

ИГРА 18+

pack

ВАЖНО

!!Акция!!

Alien_RageХит недели

RePack

MK11
pack

Забери бонус

RePack

jed

!!Акция!!

Alien_Rage

RePack

fifa19

RePack

Assassins Creed: Odyssey

RePack

NEED FOR SPEED™ PAYBACK

4 сезон

9 сезон

Бесстыжие 9 сезон

Все сериалы

все сериалы на PB.wtf

RePack

FAR CRY 5
  

Невидимая / Die Unsichtbare (Кристиан Швохов) [2011, драма, BDRip 720p by msltel] MVO pb.wtf

Невидимая через торрент pb.wtf

Размер: 4.17 GB | Добавлен: 3 года 10 мес. назад | Торрент скачан:35 раз
Скачать  

16-12-2016 10:57 Невидимая Скачать торрент  

Название: Невидимая
Оригинальное название: Die Unsichtbare
Год выпуска: 2011
Страна: Германия, Франция
Жанр: драма
Продолжительность: 01:53:18
Перевод: профессиональный многоголосый

Режиссёр: Кристиан Швохов

В ролях: Стайн Фишер Кристенсен, Ульрих Нойтен, Дагмар Манцель, Кристина Дрехслер, Рональд Церфельд, Анна Мария Мюэ, Ульрих Маттес, Маттиас Вейденхёфер, Гудрун Ландгребе, Коринна Харфух, Кэнди Ди, Николь Эрнст, Кристиан Гол, Клаудия Гейслер, Хелена Хеншел, Йохан Юргенс, Фердинанд Леманн, Анника Олбрич, Илья Плетнер, Неле Уинклер

Описание: История 21-летней Жозефины Файн, начинающей актрисы. Для такой профессии героиня очень застенчива, стеснительна и не уверена в себе. Вместе с тем, к её большому удивлению, известный театральный режиссер Каспар Фридман предлагает ей главную роль в новой постановке. Речь идёт о роли Камиллы, экстраверта, сексуально требовательной, но очень хрупкой личности. Эмоции девушки на подъёме. Она понимает, чтобы сыграть хорошо, необходимо много репетировать. В качестве «репетиций» она начинает соблазнять соседа Иоахима, одновременно всё больше удаляясь от своей больной сестры, которая болезненно реагирует на это. Во время проб Файн всё больше попадает под влияние Фридмана, он вызывает в ней гневные чувства, о которых героиня даже не подозревала. Эта напряженность всё более нарастает, грозя разрушить её внутренний мир...



Качество: BDRip 720p Сравнение с исходником
Формат: MKV
Видео: MPEG-4 AVC, 4439 Кбит/с, 1280x544, 24 кадра/с
Аудио 1: русский, AC3, 384 kbps, 2 ch, 48 kHz [профессиональный многоголосый]
Аудио 2: немецкий, AC3, 448 kbps, 6 ch, 48 kHz [оригинал]
Имеются неименованные главы/чаптеры.
Общее
Уникальный идентификатор : 219703855272787321543069036478273948326 (0xA5496C626AA5F4B0B9F49C3A12CC0AA6)
Полное имя : D:\Video\Невидимая.2011.BDRip.720p by msltel.mkv
Формат : Matroska
Версия формата : Version 4 / Version 2
Размер файла : 4,17 Гбайт
Продолжительность : 1 ч. 53 м.
Общий поток : 5273 Кбит/сек
Название фильма : Rip by msltel
Дата кодирования : UTC 2016-12-16 03:33:24
Программа кодирования : mkvmerge v8.2.0 ('World of Adventure') 64bit
Библиотека кодирования : libebml v1.3.1 + libmatroska v1.4.2

Видео
Идентификатор : 1
Формат : AVC
Формат/Информация : Advanced Video Codec
Профиль формата : High@L4.1
Параметр CABAC формата : Да
Параметр ReFrames формата : 9 кадров
Идентификатор кодека : V_MPEG4/ISO/AVC
Продолжительность : 1 ч. 53 м.
Битрейт : 4439 Кбит/сек
Ширина : 1280 пикселей
Высота : 544 пикселя
Соотношение сторон : 2,35:1
Режим частоты кадров : Постоянный
Частота кадров : 24,000 кадра/сек
Цветовое пространство : YUV
Субдискретизация насыщенности : 4:2:0
Битовая глубина : 8 бит
Тип развёртки : Прогрессивная
Бит/(Пиксели*Кадры) : 0.266
Размер потока : 3,51 Гбайт (84%)
Библиотека кодирования : x264 core 146 r2538 121396c
Настройки программы : cabac=1 / ref=9 / deblock=1:-1:-1 / analyse=0x3:0x113 / me=umh / subme=9 / psy=1 / psy_rd=1.00:0.15 / mixed_ref=1 / me_range=32 / chroma_me=1 / trellis=1 / 8x8dct=1 / cqm=0 / deadzone=21,11 / fast_pskip=0 / chroma_qp_offset=-3 / threads=6 / lookahead_threads=1 / sliced_threads=0 / nr=0 / decimate=1 / interlaced=0 / bluray_compat=0 / constrained_intra=0 / bframes=8 / b_pyramid=2 / b_adapt=2 / b_bias=0 / direct=1 / weightb=0 / open_gop=0 / weightp=2 / keyint=230 / keyint_min=23 / scenecut=40 / intra_refresh=0 / rc_lookahead=40 / rc=crf / mbtree=0 / crf=18.0 / qcomp=0.60 / qpmin=0 / qpmax=69 / qpstep=4 / vbv_maxrate=50000 / vbv_bufsize=62500 / crf_max=0.0 / nal_hrd=none / filler=0 / ip_ratio=1.40 / pb_ratio=1.30 / aq=1:1.00
Язык : German
Default : Да
Forced : Нет

Аудио #1
Идентификатор : 2
Формат : AC-3
Формат/Информация : Audio Coding 3
Расширение режима : CM (complete main)
Параметр Endianness формата : Big
Идентификатор кодека : A_AC3
Продолжительность : 1 ч. 53 м.
Вид битрейта : Постоянный
Битрейт : 384 Кбит/сек
Каналы : 2 канала
Расположение каналов : Front: L R
Частота : 48,0 КГц
Частота кадров : 31,250 кадров/сек (1536 spf)
Метод сжатия : С потерями
Размер потока : 311 Мбайт (7%)
Заголовок : MVO
Язык : Russian
Default : Да
Forced : Нет

Аудио #2
Идентификатор : 3
Формат : AC-3
Формат/Информация : Audio Coding 3
Расширение режима : CM (complete main)
Параметр Endianness формата : Big
Идентификатор кодека : A_AC3
Продолжительность : 1 ч. 53 м.
Вид битрейта : Постоянный
Битрейт : 448 Кбит/сек
Каналы : 6 каналов
Расположение каналов : Front: L C R, Side: L R, LFE
Частота : 48,0 КГц
Частота кадров : 31,250 кадров/сек (1536 spf)
Метод сжатия : С потерями
Размер потока : 363 Мбайт (8%)
Заголовок : original
Язык : German
Default : Нет
Forced : Нет

Меню
00:00:00.000 : :Chapter 01
00:05:00.000 : :Chapter 02
00:10:00.000 : :Chapter 03
00:15:00.000 : :Chapter 04
00:20:00.000 : :Chapter 05
00:25:00.000 : :Chapter 06
00:30:00.000 : :Chapter 07
00:35:00.000 : :Chapter 08
00:40:00.000 : :Chapter 09
00:45:00.000 : :Chapter 10
00:50:00.000 : :Chapter 11
00:55:00.000 : :Chapter 12
01:00:00.000 : :Chapter 13
01:05:00.000 : :Chapter 14
01:10:00.000 : :Chapter 15
01:15:00.000 : :Chapter 16
01:20:00.000 : :Chapter 17
01:25:00.000 : :Chapter 18
01:30:00.000 : :Chapter 19
01:35:00.000 : :Chapter 20
01:40:00.000 : :Chapter 21
01:45:00.000 : :Chapter 22
01:50:00.000 : :Chapter 23
pb.wtf



Скачать Невидимая через торрент http://i062.radikal.ru/1612/cb/c4a28579971c.jpg Скачать фильм Невидимая через торрент бесплантно в хорошем качестве Описание: История 21-летней Жозефины Файн, начинающей актрисы. Для такой профессии героиня очень застенчива, стеснительна и не уверена в ... 5.5 10 2
Info! Золотая раздача, скачанное не засчитывается.
Торрент: Зарегистрирован [2016-12-16 10:57] · скачан: 35 раз
Статус: √ проверено
Размер: 4.17 GB
Как cкачать? Как скачать Невидимая через торрент | qTorrent

% Раздел Тема Автор DL S | L
Фильмы [HD 720p, 1080p] (Хороший звук DUB, MVO) [ 12.39 GB ] Невидимая / Die Unsichtbare [2011 BDRip 1080p by msltel] MVO msltel Скачать
1 | 0
Фильмы 2011 [ 1.46 GB ] Невидимая / Die Unsichtbare / Cracks in the Shell / 2011 / BDRip maygli Скачать
1 | 0
Фильмы 2011 [ 1.36 GB ] Невидимая / Die Unsichtbare [2011 эротика HDRip]MVO [NOW] -=Cherry=- Скачать
1 | 0

28-11-2019 20:33  

Отключить всю рекламу на сайте

17-09-2018 16:05 Невидимая Скачать торрент  

Люди! пытаюсь скачать. Подкиньте пиров pb.wtf



    Дорогой пользователь! Огромная просьба, поблагодарите релизера, оцените раздачу и оставьте свои комментарий, если Вы скачали Невидимая через торрент бесплатно! Внесите свою лепту в развитие PiratBit!
    Комментировать посты могут только пользователи прошедшие не сложную регистрацию
    Показать сообщения:    

    Невидимая через торрент
    Скачать бесплатно Невидимая
    Невидимая скачать торрент
    Невидимая смотреть онлайн
    Cкачать фильм Невидимая бесплатно
    Невидимая скачать торрент в хорошем качестве
    Невидимая смотреть онлайн бесплатно в хорошем качестве


    Вы не можете начинать темы
    Вы не можете отвечать на сообщения
    Вы не можете редактировать свои сообщения
    Вы не можете удалять свои сообщения
    Вы не можете голосовать в опросах
    Вы не можете прикреплять файлы к сообщениям
    Вы можете скачивать файлы