Доктор Стрэндж

Лицензия

Добыча

MVO

Дом дракона

1 сезон

Тор

Лицензия

Мэверик

Лицензия

Там, где раки поют

MVO

Властелин колец

1 сезон

Ultimate

pack

Рекомендуем

30

Repack

ВАЖНО

ВАЖНО

Ghostwire

RePack

jed

RePack

nioh2

RePack

RDR2

RePack

NEED FOR SPEED™ PAYBACK

RePack

скачать торрент

Кинопоиск HD

Острые козырьки 6 сезон

6 сезон

FAR CRY 6

RePack

скачать торрент

Лицензия

скачать торрент

MVO

1

1 сезон

скачать торрент

1 сезон

скачать торрент

Лицензия

  

Пассажиры / Passengers (Мортен Тильдум / Morten Tyldum) [2016, США, фантастика, драма, мелодрама, DCPRip 2k] Трейлер

Пассажиры через торрент pb.wtf

Размер: 457 MB | Добавлен: 5 лет 9 мес. назад | Торрент скачан:58 раз
Смотреть онлайн Пассажиры | Скачать   

16-12-2016 12:13 Пассажиры Скачать торрент  

Пассажиры / Passengers
«Ничто не случайно»
Год выпуска: 2016
Страна: США
Жанр: фантастика, драма, мелодрама, приключения
Продолжительность: 00:02:02 | Трейлер E
Перевод:
|Профессиональный (полное дублирование),|

Режиссер: Мортен Тильдум / Morten Tyldum
В ролях: Дженнифер Лоуренс (Aurora Lane), Крис Пратт (James Preston), Майкл Шин (Arthur), Энди Гарсиа (Captain Norris), Лоренс Фишбёрн (Gus Mancuso), Кимберли Баттиста (Jr Officer Fitzgerald), Аврора Перрино (Celeste), Джейми Соричелли (Space Cruise Passenger), Фред Меламед (The Observatory, озвучка), Шелби Тейлор Маллинс (Passenger), Кристин Брок (Aurora's Friend), Мари Бурк (Attendant)
Описание:
Космический корабль с 5,000 пассажиров на борту, погруженных на время полета в искусственный сон, держит курс на планету, которая станет для них новым домом. Всё идет по плану, но из-за сбоя системы двое пассажиров неожиданно просыпаются и понимают, что до конечного пункта путешествия - 90 лет пути, и им суждено остаток жизни провести вдвоем в роскошных интерьерах корабля, оснащенного по последнему слову техники. Постепенно Джима и Аврору начинает непреодолимо тянуть друг к другу, но корабль попадает в беду, и теперь в их руках - жизнь и судьба всех обитателей корабля.

Рейтинг

Премьера в России: 22 декабря 2016

Качество: DCPRip 2k
Формат: MKV
Видео кодек: AVC
Аудио кодек: FLAC
Видео: AVC, 10bit, [email protected], 2048x858 (2.40:1), 24 fps, ~ 27481 kbps, (127 Mbps peak), 0,652 bpp
Аудио: FLAC / 5.1 / 48 kHz / 3797 kbps / 24 bit
Оформление: Messa-fan
Рип by tohych
General
Unique ID : 208215986385801148176278806776683178950 (0x9CA4F0B80753DD5BB7C5B0EF376C2BC6)
Complete name : Passengers.2016.Trailer.E.DCPRip.2k.DUB.mkv
Format : Matroska
Format version : Version 4 / Version 2
File size : 457 MiB
Duration : 2 min
Overall bit rate mode : Variable
Overall bit rate : 31.3 Mb/s
Movie name : passengers
Encoded date : UTC 2016-12-10 14:33:20
Writing application : mkvmerge v7.1.0 ('Good Love') 64bit built on Jul 27 2014 13:06:55
Writing library : libebml v1.3.0 + libmatroska v1.4.1

Video
ID : 1
Format : AVC
Format/Info : Advanced Video Codec
Format profile : High 4:4:4 [email protected]
Format settings, CABAC : Yes
Format settings, ReFrames : 12 frames
Codec ID : V_MPEG4/ISO/AVC
Duration : 2 min
Bit rate : 27.5 Mb/s
Width : 2 048 pixels
Height : 858 pixels
Display aspect ratio : 2.40:1
Frame rate mode : Constant
Frame rate : 24.000 FPS
Color space : YUV
Chroma subsampling : 4:4:4
Bit depth : 10 bits
Scan type : Progressive
Bits/(Pixel*Frame) : 0.652
Stream size : 402 MiB (88%)
Title : DCPrip, h264, 10-bit, 444 css, pc range
Writing library : x264 core 142 r2431+42 c69a006 tMod [[email protected] X86_64]
Encoding settings : cabac=1 / ref=12 / deblock=1:-3:-2 / analyse=0x3:0x133 / me=tesa / subme=11 / psy=1 / fade_compensate=0.00 / psy_rd=0.70:0.10 / mixed_ref=1 / me_range=32 / chroma_me=1 / trellis=2 / 8x8dct=1 / cqm=0 / deadzone=21,11 / fast_pskip=0 / chroma_qp_offset=3 / threads=12 / lookahead_threads=3 / sliced_threads=0 / nr=0 / decimate=0 / interlaced=0 / bluray_compat=0 / constrained_intra=0 / fgo=0 / bframes=16 / b_pyramid=2 / b_adapt=2 / b_bias=0 / direct=3 / weightb=1 / open_gop=0 / weightp=2 / keyint=250 / keyint_min=24 / scenecut=40 / intra_refresh=0 / rc_lookahead=72 / rc=crf / mbtree=1 / crf=12.0000 / qcomp=0.75 / qpmin=0:0:0 / qpmax=81:81:81 / qpstep=4 / ip_ratio=1.40 / aq=1:1.00 / aq-sensitivity=10.00 / aq-factor=1.00:1.00:1.00 / aq2=0 / aq3=0
Default : Yes
Forced : No
Color range : Full
Color primaries : BT.709
Transfer characteristics : BT.709
Matrix coefficients : BT.709

Audio
ID : 2
Format : FLAC
Format/Info : Free Lossless Audio Codec
Codec ID : A_FLAC
Duration : 2 min
Bit rate mode : Variable
Bit rate : 3 797 kb/s
Channel(s) : 6 channels
Sampling rate : 48.0 kHz
Frame rate : 11.723 FPS (4095 spf)
Bit depth : 24 bits
Stream size : 55.5 MiB (12%)
Title : FLAC
Writing library : libFLAC 1.2.1 (UTC 2007-09-17)
Default : Yes
Forced : No


  • Ранее проект готовился на студии Universal, но перешел к Sony Pictures Entertainment.
  • Идея и сценарий фильма разрабатывались на студии Company Films, принадлежащей Киану Ривзу и Стивену Хэймелу.
  • Сценарий Джона Спэйтса, написанный в 2007 году, занял третье место в Черном списке лучших сценариев того года.
  • Изначально на главную роль рассматривался Киану Ривз.
  • В разное время на главную женскую роль претендовали Риз Уизерспун, Рэйчел МакАдамс и Эмили Блант.
  • На одном из постеров сразу под названием картины изображены символы: точка точка точка, тире тире тире, точка точка точка - означающие сигнал S.O.S. в азбуке Морзе.
  • На режиссерское кресло претендовали Габриэле Муччино, Марк Форстер и Брайан Кирк.
  • Крис Пратт и Дженнифер Лоуренс оба участвуют в экранизациях комиксов Marvel. Пратт исполняет роль Питера Квилла (Звездного Лорда) в «Стражах Галактики», а Лоуренс играет Рейвен Даркхолм (Мистик) в саге про «Людей Икс».

  • Рип в 10-битном High 4:4:4 с уровнем 5.0, с кадром большим 1080p.
    Энкод сделан с dcp пакета разрешением 2K с помощью "DCP HQ rip maker"от Rishkhaan.
    НЕ будет проигрываться на современных массовых медиаплеерах.
    • Двух- или четырёх-ядерный процессор класса Intel Core i3 или аналогичный от AMD
    • Последние версии кодеков (рекомендуется k-lite codec pack)
    • MPC-HC либо VLC в качестве плеера
    • Не гарантируется нормальное воспроизведение на ноутбуках



    Скачать Пассажиры через торрент http://i83.fastpic.ru/big/2016/1216/56/e6b9d643cdc3d182b77ac5fde0075356.jpg Скачать, смотреть онлайн Пассажиры бесплантно в хорошем качестве Описание: Космический корабль с 5,000 пассажиров на борту, погруженных на время полета в искусственный сон, держит курс на планету, которая ... 10 10 4
    Info! Золотая раздача, скачанное не засчитывается.
    Торрент: Зарегистрирован [2016-12-16 12:13] · скачан: 58 раз
    Статус: √ проверено
    Размер: 457 MB
    Как cкачать? Как скачать Пассажиры через торрент | UTorrent

    28-11-2019 20:33  

    Отключить вcю реклaмy на сайте

    16-12-2016 12:44 Пассажиры Скачать торрент  

    Ждал этот фильм. Сейчас научная фантастика снимается очень редко. Сплошные комиксы да фэнтэзи



      Дорогой пользователь! Огромная просьба, поблагодарите релизера, оцените раздачу и оставьте свои комментарий, если Вы скачали Пассажиры через торрент бесплатно!!
      Комментировать посты могут только пользователи прошедшие не сложную регистрацию
      Показать сообщения:    


      Пассажиры через торрент
      Скачать бесплатно Пассажиры
      Пассажиры скачать торрент
      Пассажиры смотреть онлайн
      Cкачать фильм Пассажиры бесплатно
      Пассажиры скачать торрент в хорошем качестве
      Пассажиры смотреть онлайн бесплатно в хорошем качестве
      Вы не можете начинать темы
      Вы не можете отвечать на сообщения
      Вы не можете редактировать свои сообщения
      Вы не можете удалять свои сообщения
      Вы не можете голосовать в опросах
      Вы не можете прикреплять файлы к сообщениям
      Вы можете скачивать файлы