новый адрес пиратбит piratbit
Мега распродажа FORZA HORIZON 4 ULTIMATE+ВСЕ DLC+ОНЛАЙН всего за 499р. 349 руб. (супер цена). Внимание количество ограничено!!!

iTunes

1+1

iTunes

мы

iTunes

1

iTunes

Чернобыль

iTunes

Ральф против интернета

Лицензия

ПШазам

Лицензия

Игра престолов

Лицензия

30
pack

ВАЖНО

!!Акция!!

Alien_RageХит недели

RePack

Resident Evil 21

ИГРА 18+

pack

RePack

Metro:Exodus

!!Акция!!

Alien_Rage

RePack

fifa19

RePack

Assassins Creed: Odyssey

RePack

NEED FOR SPEED™ PAYBACK

3 сезон

9 сезон

Бесстыжие 9 сезон

Все сериалы

все сериалы на PB.wtf

RePack

FAR CRY 5
Ребята, катастрофически не хватает 1900р. для оплаты серверов за Октябрь (всвязи с блокировками трафик упал в 3 раза), 1-2р., выручайте.
  

Мальтийский сокол / The Maltese Falcon (Джон Хьюстон / John Huston) [1941, фильм-нуар, детектив, BDRip 720p от _denis_100 / NNNB] DUB + 4xMVO + Original + Sub (Rus,Eng) pb.wtf

Мальтийский сокол через торрент pb.wtf

Размер: 7.58 GB | Добавлен: 2 года 10 мес. назад | Торрент скачан:34 раза
Скачать  

16-12-2016 14:01 Мальтийский сокол Скачать торрент  

Мальтийский сокол / The Maltese Falcon
«He's a Killer When He Hates!»


Год выпуска: 1941
Страна: США
Жанр: фильм-нуар, детектив
Продолжительность: 01:40:33
Перевод: Дублированный, Профессиональный многоголосый
Субтитры: русские, английские
Режиссер: Джон Хьюстон
В ролях:
Описание:
Частный детектив Сэм Спэйд начинает смертельную охоту за таинственно исчезнувшей бесценной статуэткой «мальтийского сокола».

Качество: BDRip 720p
Контейнер (Расширение): MKV
Видео: 986x720, 9766 Кбит/сек, 23,976 кадр/сек, 0,574 Бит/[Пиксели*Кадры]
Аудио №1: русский / AC3 / 1 / 48 kHz / 192 kbps / |Профессиональный многоголосый, Film Prestige|
Аудио №2: русский / AC3 / 1 / 48 kHz / 128 kbps / |Профессиональный многоголосый, SomeWax|
Аудио №3: русский / AC3 / 1 / 48 kHz / 128 kbps / |Профессиональный многоголосый, Фортуна Фильм|
Аудио №4: русский / AC3 / 2.0 / 48 kHz / 192 kbps / |Профессиональный многоголосый, СВ-Дубль|
Аудио №5: русский / AC3 / 2.0 / 48 kHz / 192 kbps / |Дублированный|
Аудио №6: английский / AC3 / 1 / 48 kHz / 192 kbps /
Навигация по главам(Чаптеры): естьАвтор рипа: Группа:
Format : Matroska
Format version : Version 2
File size : 7.58 GiB
Duration : 1 h 40 min
Overall bit rate : 10.8 Mb/s
Movie name : The Maltese Falcon.1941.BDRip.720p.[denis100]
Encoded date : UTC 2016-12-16 13:42:17
Writing application : mkvmerge v5.8.0 ('No Sleep / Pillow') built on Sep 2 2012 15:37:04
Writing library : libebml v1.2.3 + libmatroska v1.3.0

Video
ID : 1
Format : AVC
Format/Info : Advanced Video Codec
Format profile : High@L4.1
Format settings, CABAC : Yes
Format settings, ReFrames : 9 frames
Codec ID : V_MPEG4/ISO/AVC
Duration : 1 h 40 min
Bit rate : 9 766 kb/s
Width : 986 pixels
Height : 720 pixels
Display aspect ratio : 4:3
Frame rate mode : Constant
Frame rate : 23.976 (24000/1001) FPS
Color space : YUV
Chroma subsampling : 4:2:0
Bit depth : 8 bits
Scan type : Progressive
Bits/(Pixel*Frame) : 0.574
Stream size : 6.71 GiB (89%)
Title : The Maltese Falcon.1941.BDRip.720p.[denis100]
Writing library : x264 core 148 r2744 b97ae06
Encoding settings : cabac=1 / ref=9 / deblock=1:-3:-3 / analyse=0x3:0x133 / me=umh / subme=11 / psy=1 / psy_rd=1.00:0.10 / mixed_ref=1 / me_range=48 / chroma_me=1 / trellis=2 / 8x8dct=1 / cqm=0 / deadzone=21,11 / fast_pskip=0 / chroma_qp_offset=-3 / threads=6 / lookahead_threads=1 / sliced_threads=0 / nr=0 / decimate=1 / interlaced=0 / bluray_compat=0 / constrained_intra=0 / bframes=9 / b_pyramid=2 / b_adapt=2 / b_bias=0 / direct=3 / weightb=1 / open_gop=0 / weightp=2 / keyint=240 / keyint_min=23 / scenecut=40 / intra_refresh=0 / rc=2pass / mbtree=0 / bitrate=9766 / ratetol=1.0 / qcomp=0.60 / qpmin=0 / qpmax=69 / qpstep=4 / cplxblur=20.0 / qblur=0.5 / ip_ratio=1.40 / pb_ratio=1.30 / aq=2:0.85
Language : English
Default : Yes
Forced : No

Audio #1
ID : 2
Format : AC-3
Format/Info : Audio Coding 3
Mode extension : CM (complete main)
Format settings, Endianness : Big
Codec ID : A_AC3
Duration : 1 h 40 min
Bit rate mode : Constant
Bit rate : 192 kb/s
Channel(s) : 1 channel
Channel positions : Front: C
Sampling rate : 48.0 kHz
Frame rate : 31.250 FPS (1536 spf)
Compression mode : Lossy
Stream size : 138 MiB (2%)
Title : MVO, Film Prestige
Language : Russian
Default : No
Forced : No

Audio #2
ID : 3
Format : AC-3
Format/Info : Audio Coding 3
Mode extension : CM (complete main)
Format settings, Endianness : Big
Codec ID : A_AC3
Duration : 1 h 40 min
Bit rate mode : Constant
Bit rate : 128 kb/s
Channel(s) : 1 channel
Channel positions : Front: C
Sampling rate : 48.0 kHz
Frame rate : 31.250 FPS (1536 spf)
Compression mode : Lossy
Stream size : 92.1 MiB (1%)
Title : MVO, SomeWax
Language : Russian
Default : No
Forced : No

Audio #3
ID : 4
Format : AC-3
Format/Info : Audio Coding 3
Mode extension : CM (complete main)
Format settings, Endianness : Big
Codec ID : A_AC3
Duration : 1 h 40 min
Bit rate mode : Constant
Bit rate : 128 kb/s
Channel(s) : 1 channel
Channel positions : Front: C
Sampling rate : 48.0 kHz
Frame rate : 31.250 FPS (1536 spf)
Compression mode : Lossy
Stream size : 92.1 MiB (1%)
Title : MVO, Фортуна Фильм
Language : Russian
Default : No
Forced : No

Audio #4
ID : 5
Format : AC-3
Format/Info : Audio Coding 3
Mode extension : CM (complete main)
Format settings, Endianness : Big
Codec ID : A_AC3
Duration : 1 h 40 min
Bit rate mode : Constant
Bit rate : 192 kb/s
Channel(s) : 2 channels
Channel positions : Front: L R
Sampling rate : 48.0 kHz
Frame rate : 31.250 FPS (1536 spf)
Compression mode : Lossy
Stream size : 138 MiB (2%)
Title : MVO, СВ-Дубль
Language : Russian
Default : No
Forced : No

Audio #5
ID : 6
Format : AC-3
Format/Info : Audio Coding 3
Mode extension : CM (complete main)
Format settings, Endianness : Big
Codec ID : A_AC3
Duration : 1 h 40 min
Bit rate mode : Constant
Bit rate : 192 kb/s
Channel(s) : 2 channels
Channel positions : Front: L R
Sampling rate : 48.0 kHz
Frame rate : 31.250 FPS (1536 spf)
Compression mode : Lossy
Stream size : 138 MiB (2%)
Title : Дубляж, Варус Видео
Language : Russian
Default : No
Forced : No

Audio #6
ID : 7
Format : AC-3
Format/Info : Audio Coding 3
Mode extension : CM (complete main)
Format settings, Endianness : Big
Codec ID : A_AC3
Duration : 1 h 40 min
Bit rate mode : Constant
Bit rate : 192 kb/s
Channel(s) : 1 channel
Channel positions : Front: C
Sampling rate : 48.0 kHz
Frame rate : 31.250 FPS (1536 spf)
Compression mode : Lossy
Stream size : 138 MiB (2%)
Language : English
Default : No
Forced : No

Text #1
ID : 8
Format : UTF-8
Codec ID : S_TEXT/UTF8
Codec ID/Info : UTF-8 Plain Text
Language : Russian
Default : No
Forced : No

Text #2
ID : 9
Format : UTF-8
Codec ID : S_TEXT/UTF8
Codec ID/Info : UTF-8 Plain Text
Language : English
Default : No
Forced : No

Menu
00:00:00.000 : en:Chapter 01
00:01:23.291 : en:Chapter 02
00:06:05.239 : en:Chapter 03
00:10:07.857 : en:Chapter 04
00:13:21.425 : en:Chapter 05
00:17:02.688 : en:Chapter 06
00:22:38.065 : en:Chapter 07
00:28:51.855 : en:Chapter 08
00:30:13.728 : en:Chapter 09
00:33:46.983 : en:Chapter 10
00:36:52.293 : en:Chapter 11
00:41:31.780 : en:Chapter 12
00:44:19.323 : en:Chapter 13
00:47:26.301 : en:Chapter 14
00:50:59.222 : en:Chapter 15
00:56:39.938 : en:Chapter 16
01:04:06.384 : en:Chapter 17
01:06:47.086 : en:Chapter 18
01:12:06.113 : en:Chapter 19
01:13:52.219 : en:Chapter 20
01:18:17.484 : en:Chapter 21
01:22:54.219 : en:Chapter 22
01:26:19.174 : en:Chapter 23
01:29:50.218 : en:Chapter 24
01:31:48.044 : en:Chapter 25
01:36:16.729 : en:Chapter 26
01:38:30.696 : en:Chapter 27
01:39:53.612 : en:Chapter 28
pb.wtf



Скачать Мальтийский сокол через торрент http://i5.imageban.ru/out/2016/12/16/8a0ff624b6e2963b5cb713bf8d5c22a4.png Скачать фильм Мальтийский сокол через торрент бесплантно в хорошем качестве Описание:Частный детектив Сэм Спэйд начинает смертельную охоту за таинственно исчезнувшей бесценной статуэткой «мальтийского ... 10 10 7
Info! Золотая раздача, скачанное не засчитывается.
Торрент: Зарегистрирован [2016-12-16 14:01] · скачан: 34 раз
Статус: √ проверено
Размер: 7.58 GB
Как cкачать? Как скачать Мальтийский сокол через торрент | qTorrent

% Раздел Тема Автор DL S | L
Классика зарубежного кино [ 1.46 GB ] Мальтийский сокол / The Maltese Falcon [1941 фильм-нуар BDRip] killermax2013 Скачать
1 | 0
Классика зарубежного кино [ 11.4 GB ] Мальтийский Сокол / The Maltese Falcon [1941 фильм-нуар BDRip 1080p] + 5x[MVO] killermax2013 Скачать
1 | 0


>> Регистрируемся здесь <<






Отзывы и комментарии о схеме читаем и пишем здесь: ---> Отзывы и комментарии о схеме

Новые благодарочки в телеграм довольных пользователей:
скриншот   скриншот   скриншот   скриншот   скриншот
    Дорогой пользователь! Огромная просьба, поблагодарите релизера, оцените раздачу и оставьте свои комментарий, если Вы скачали Мальтийский сокол через торрент бесплатно! Внесите свою лепту в развитие PiratBit!
    Комментировать посты могут только пользователи прошедшие не сложную регистрацию
    Показать сообщения:    

    Мальтийский сокол через торрент
    Скачать бесплатно Мальтийский сокол
    Мальтийский сокол скачать торрент
    Мальтийский сокол смотреть онлайн
    Cкачать фильм Мальтийский сокол бесплатно
    Мальтийский сокол скачать торрент в хорошем качестве
    Мальтийский сокол смотреть онлайн бесплатно в хорошем качестве


    Вы не можете начинать темы
    Вы не можете отвечать на сообщения
    Вы не можете редактировать свои сообщения
    Вы не можете удалять свои сообщения
    Вы не можете голосовать в опросах
    Вы не можете прикреплять файлы к сообщениям
    Вы можете скачивать файлы