Ссылка на приватное зеркало нашего сайта всего за 1$. Внимание количество ограничено!!!

2 сезон

iTunes

1 сезон

1

2 сезон

2 сезон

iTunes

1 сезон

RePack

30

Ultimate

ВАЖНО

ИГРА 18+

pack

RePack

MK11
pack

Забери бонус

RePack

jed

!!Акция!!

Alien_Rage

RePack

fifa19

RePack

Assassins Creed: Odyssey

RePack

NEED FOR SPEED™ PAYBACK

4 сезон

9 сезон

Бесстыжие 9 сезон

Все сериалы

все сериалы на PB.wtf

RePack

FAR CRY 5
  

Улица потрошителя / Ripper Street / Сезон: 5 / Серии: 1-6 из 6 (Энди Уилсон, Том Шенклэнд, Колм МакКарти) [2016, детектив, драма, криминал, WEBRip 720p] [MVO] (NewStudio) pb.wtf

Улица потрошителя через торрент pb.wtf

Размер: 19.87 GB | Добавлен: 3 года 10 мес. назад | Торрент скачан:44 раза
Скачать  

16-12-2016 16:35 Улица потрошителя Скачать торрент  

Улица потрошителя / Ripper Street



Год выпуска: 2016
Страна: Великобритания | Amazon
Жанр: детектив, драма, криминал
Продолжительность: 1x ~ 01:00:00
Перевод: Профессиональный (многоголосный, закадровый) [NewStudio]
Субтитры: русские

Режиссёры: Энди Уилсон, Том Шенклэнд, Колм МакКарти и др.

В ролях: Мэтью Макфейден, Джером Флинн, Адам Ротенберг, Дэвид Уилмот, МайАнна Бёринг, Шарлин МакКенна и др.
Описание: События данного сериала разворачиваются в Лондоне 1899 года, сразу после громких убийств, совершенных Джеком Потрошителем. Команда детективов расследует преступления, попутно стараясь успокоить панику среди жителей Ист-Энда.


Качество: WEBRip 720p
Формат: MKV
Видео кодек: AVC
Аудио кодек: AC3, E-AC3
Видео: MPEG-4 AVC, ~ 5000 Кбит/с, 1280x720, 25.000 fps
Аудио: 48.0 kHz, AC3, 6 ch, 384 kbps - [MVO]
Аудио: 48.0 kHz, E-AC3, 6 ch, 640 kbps - [ENG]
Релиз:
General
Unique ID : 209365029962638911814595452659760558491 (0x9D823CF0ED5EA5DEB409055DD2EEF19B)
Complete name : E:\Ripper.Street.s05e01.WEBDL.720p.NewStudio.mkv
Format : Matroska
Format version : Version 4 / Version 2
File size : 2.61 GiB
Duration : 1h 0mn
Overall bit rate : 6 215 Kbps
Encoded date : UTC 2016-12-16 14:48:18
Writing application : mkvmerge v6.7.0 ('Back to the Ground') 32bit built on Jan 8 2014 15:03:17
Writing library : libebml v1.3.0 + libmatroska v1.4.1

Video
ID : 1
Format : AVC
Format/Info : Advanced Video Codec
Format profile : High@L4.1
Format settings, CABAC : Yes
Format settings, ReFrames : 9 frames
Codec ID : V_MPEG4/ISO/AVC
Duration : 1h 0mn
Bit rate : 5 067 Kbps
Width : 1 280 pixels
Height : 720 pixels
Display aspect ratio : 16:9
Frame rate mode : Constant
Frame rate : 25.000 fps
Color space : YUV
Chroma subsampling : 4:2:0
Bit depth : 8 bits
Scan type : Progressive
Bits/(Pixel*Frame) : 0.220
Stream size : 2.13 GiB (82%)
Writing library : x264 core 144 r2525 40bb568
Encoding settings : cabac=1 / ref=9 / deblock=1:-3:-3 / analyse=0x3:0x133 / me=umh / subme=10 / psy=1 / psy_rd=1.00:0.00 / mixed_ref=1 / me_range=48 / chroma_me=1 / trellis=2 / 8x8dct=1 / cqm=0 / deadzone=21,11 / fast_pskip=0 / chroma_qp_offset=-2 / threads=6 / lookahead_threads=1 / sliced_threads=0 / nr=0 / decimate=0 / interlaced=0 / bluray_compat=0 / constrained_intra=0 / bframes=8 / b_pyramid=2 / b_adapt=2 / b_bias=0 / direct=3 / weightb=1 / open_gop=0 / weightp=2 / keyint=250 / keyint_min=25 / scenecut=40 / intra_refresh=0 / rc=crf / mbtree=0 / crf=17.0 / qcomp=0.60 / qpmin=0 / qpmax=69 / qpstep=4 / ip_ratio=1.30 / pb_ratio=1.20 / aq=3:0.80
Language : English
Default : Yes
Forced : No

Audio #1
ID : 2
Format : AC-3
Format/Info : Audio Coding 3
Mode extension : CM (complete main)
Format settings, Endianness : Big
Codec ID : A_AC3
Duration : 1h 0mn
Bit rate mode : Constant
Bit rate : 384 Kbps
Channel(s) : 6 channels
Channel positions : Front: L C R, Side: L R, LFE
Sampling rate : 48.0 KHz
Compression mode : Lossy
Stream size : 165 MiB (6%)
Language : Russian
Default : Yes
Forced : Yes

Audio #2
ID : 3
Format : E-AC-3
Format/Info : Audio Coding 3
Format settings, Endianness : Big
Codec ID : A_EAC3
Duration : 1h 0mn
Bit rate mode : Constant
Bit rate : 640 Kbps
Channel(s) : 6 channels
Channel positions : Front: L C R, Side: L R, LFE
Sampling rate : 48.0 KHz
Compression mode : Lossy
Stream size : 275 MiB (10%)
Language : English
Default : No
Forced : No

Text
ID : 4
Format : ASS
Codec ID : S_TEXT/ASS
Codec ID/Info : Advanced Sub Station Alpha
Compression mode : Lossless
Language : Russian
Default : Yes
Forced : Yes
Внимание! Раздача ведётся путём добавления новых серий; при каждом добавлении создаётся новый торрент. Чтобы начать докачку новой серии, пользователям необходимо сделать следующее:
(1) остановить скачивание,
(2) удалить старый торрент у себя из клиента (старые серии удалять не надо),
(3) скачать новый торрент и запустить его у себя в клиенте вместо старого, при этом указать клиенту путь в старую папку куда и должно происходить скачивание новых серий.
Ваш клиент при этом должен произвести хеширование (проверку) старой папки (если не производит сам - помогите ему сделать это), и будет докачивать только те серии которых у вас ещё нет. Старые серии при этом не удаляются, а продолжают раздаваться!
Eсли вы уже удалили старые серии, то предотвратить повторную закачку старых серий можно, отжав галочку в соответствующих местах при запуске нового торрента. По возможности, желательно не удалять старые серии как можно дольше чтобы релизёр не столько продолжал раздавать старые серии, а смог сконцентрироваться на новых.
pb.wtf



Скачать Улица потрошителя через торрент http://pic1.kartinco.top/images/10/74y5t.jpg Скачать фильм Улица потрошителя через торрент бесплантно в хорошем качестве Описание: События данного сериала разворачиваются в Лондоне 1899 года, сразу после громких убийств, совершенных Джеком Потрошителем. ... 9.1 10 10
Info! Золотая раздача, скачанное не засчитывается.
Торрент: Зарегистрирован [2017-01-08 21:29] · скачан: 44 раз
Статус: √ проверено
Размер: 19.87 GB
Как cкачать? Как скачать Улица потрошителя через торрент | qTorrent

% Раздел Тема Автор DL S | L
Зарубежные сериалы [ 34.81 GB ] Улица потрошителя / Ripper Street / Сезон: 5 / Серии: 1-6 из 6 [2016 WEBRip 1080p] [MVO] killermax2013 Скачать
1 | 0
Зарубежные сериалы [ 5.02 GB ] Улица потрошителя / Ripper Street / Сезон: 5 / Серии: 1-6 из 6 [2016 WEBRip] [MVO] killermax2013 Скачать
1 | 0
# Фильмы без перевода [ 2.22 GB ] Улица потрошителя / Ripper Street /Сезон: 5 / Серии: 1-6 из 6 [2016 WEBRip-AVC] [ENG] + [Sub] killermax2013 Скачать
1 | 0


Последний раз редактировалось: killermax2013 (2017-01-08 21:29), всего редактировалось 4 раз(а)

28-11-2019 20:33  

Отключить всю рекламу на сайте

17-12-2016 08:31 Улица потрошителя Скачать торрент  

+2pb.wtf



20-12-2016 10:58 Улица потрошителя Скачать торрент  

+3pb.wtf



20-12-2016 12:19 Улица потрошителя Скачать торрент  

на 4 сезоне же вроде все закончилось или сценаристам денег захотелось?pb.wtf



20-12-2016 13:10 Улица потрошителя Скачать торрент  

capone писал(а):

на 4 сезоне же вроде все закончилось или сценаристам денег захотелось?

Amazon выкупил права, заявлены были 5-6 сезонpb.wtf



22-12-2016 08:12 Улица потрошителя Скачать торрент  

+4pb.wtf



26-12-2016 10:07 Улица потрошителя Скачать торрент  

Встаньте на раздачу пожалуйста, совсем скорости нет((pb.wtf



30-12-2016 11:37 Улица потрошителя Скачать торрент  

+5pb.wtf



08-01-2017 21:29 Улица потрошителя Скачать торрент  

+6pb.wtf



    Дорогой пользователь! Огромная просьба, поблагодарите релизера, оцените раздачу и оставьте свои комментарий, если Вы скачали Улица потрошителя через торрент бесплатно! Внесите свою лепту в развитие PiratBit!
    Комментировать посты могут только пользователи прошедшие не сложную регистрацию
    Показать сообщения:    

    Улица потрошителя через торрент
    Скачать бесплатно Улица потрошителя
    Улица потрошителя скачать торрент
    Улица потрошителя смотреть онлайн
    Cкачать фильм Улица потрошителя бесплатно
    Улица потрошителя скачать торрент в хорошем качестве
    Улица потрошителя смотреть онлайн бесплатно в хорошем качестве


    Вы не можете начинать темы
    Вы не можете отвечать на сообщения
    Вы не можете редактировать свои сообщения
    Вы не можете удалять свои сообщения
    Вы не можете голосовать в опросах
    Вы не можете прикреплять файлы к сообщениям
    Вы можете скачивать файлы