новый адрес
Мега распродажа FORZA HORIZON 4 ULTIMATE+ВСЕ DLC+ОНЛАЙН всего за 499р. 349 руб. (супер цена). Внимание количество ограничено!!!

iTunes

1+1

iTunes

мы

iTunes

1

iTunes

Чернобыль

iTunes

Ральф против интернета

Лицензия

ПШазам

Лицензия

Игра престолов

Лицензия

30
pack

ВАЖНО

!!Акция!!

Alien_RageХит недели

RePack

Resident Evil 21

ИГРА 18+

pack

RePack

Metro:Exodus

!!Акция!!

Alien_Rage

RePack

fifa19

RePack

Assassins Creed: Odyssey

RePack

NEED FOR SPEED™ PAYBACK

3 сезон

9 сезон

Бесстыжие 9 сезон

Все сериалы

все сериалы на PB.wtf

RePack

FAR CRY 5
Ребята, катастрофически не хватает 1900р. для оплаты серверов за Октябрь (всвязи с блокировками трафик упал в 3 раза), 1-2р., выручайте.
  

Мальва (Владимир Браун) [1956, СССР, драма, SATRip от AVP Studio] pb.wtf

Мальва через торрент pb.wtf

Размер: 1.09 GB | Добавлен: 2 года 11 мес. назад | Торрент скачан:9 раз
Скачать  

17-12-2016 08:36 Мальва Скачать торрент  

Мальва
Страна: СССР
Производство: Киностудия им. А. Довженко

Жанр: драма
Год выпуска: 1956
Продолжительность: 01:19:47

Перевод: Не требуется
Cубтитры: нет
Оригинальная аудиодорожка: русский

Режиссер: Владимир Браун

В ролях:
Дзидра Ритенберга, Павел Усовниченко, Анатолий Игнатьев, Геннадий Юхтин, Иван Матвеев, Аркадий Толбузин...
Полный список актёров

Описание:
По мотивам ранних рассказов Максима Горького.
История соперничества отца и сына из-за любви к одной женщине.
Когда-то крестьянин Василий ушел из родной деревни, оставив жену и сына Якова. Много лет проработал он на рыбном промысле, где, забыв о семье, сошелся с красавицей рыбачкой Мальвой и зажил безмятежной жизнью. Но повзрослевший сын приехал к отцу. Вскоре отношения междцу ним и Мальвой привели к конфликтам с отцом...

Источник: DVB
Качество видео: SATRip
Формат видео: AVI

Видео: 688x512 (4:3), 25 fps, XviD ~ 1754 kbps avg, 0.199 bit/pixel
Аудио: 48 kHz, Dolby Digital AC3 2.0, 192 kbps

Раздача от:
Общее
Полное имя : Malva.1956.SATRip_[New-team]_by_AVP_Studio.avi
Формат : AVI
Формат/Информация : Audio Video Interleave
Размер файла : 1,09 Гбайт
Продолжительность : 1 ч. 19 м.
Общий поток : 1956 Кбит/сек
Программа кодирования : VirtualDubMod 1.5.10.3 | www.virtualdub-fr.org || (build 2550/release)
Библиотека кодирования : VirtualDubMod build 2550/release

Видео
Идентификатор : 0
Формат : MPEG-4 Visual
Профиль формата : Advanced Simple@L5
Параметр BVOP формата : 1
Параметр QPel формата : Нет
Параметр GMC формата : Без точки перехода
Параметр матрицы формата : Выборочная
Идентификатор кодека : XVID
Идентификатор кодека/Подсказка : XviD
Продолжительность : 1 ч. 19 м.
Битрейт : 1754 Кбит/сек
Ширина : 688 пикселей
Высота : 512 пикселей
Соотношение сторон : 4:3
Частота кадров : 25,000 кадров/сек
Цветовое пространство : YUV
Субдискретизация насыщенности : 4:2:0
Битовая глубина : 8 бит
Тип развёртки : Прогрессивная
Метод сжатия : С потерями
Бит/(Пиксели*Кадры) : 0.199
Размер потока : 1001 Мбайт (90%)
Библиотека кодирования : XviD 1.2.1 (UTC 2008-12-04)

Аудио
Идентификатор : 1
Формат : AC-3
Формат/Информация : Audio Coding 3
Расширение режима : CM (complete main)
Параметр Endianness формата : Big
Идентификатор кодека : 2000
Продолжительность : 1 ч. 19 м.
Вид битрейта : Постоянный
Битрейт : 192 Кбит/сек
Каналы : 2 канала
Расположение каналов : Front: L R
Частота : 48,0 КГц
Частота кадров : 31,250 кадров/сек (1536 spf)
Битовая глубина : 16 бит
Метод сжатия : С потерями
Размер потока : 110 Мбайт (10%)
Выравнивание : Разделение по промежуткам
Продолжительность промежутка : 40 мс. (1,00 видеокадр)
Время предзагрузки промежутка : 500 мс
pb.wtf



Скачать Мальва через торрент http://s018.radikal.ru/i503/1612/c8/7aa64ec12c5a.png Скачать фильм Мальва через торрент бесплантно в хорошем качестве Описание:По мотивам ранних рассказов Максима Горького.История соперничества отца и сына из-за любви к одной женщине.Когда-то крестьянин ... 10 10 3
Info! Золотая раздача, скачанное не засчитывается.
Торрент: Зарегистрирован [2016-12-17 08:36] · скачан: 9 раз
Статус: √ проверено
Размер: 1.09 GB
Как cкачать? Как скачать Мальва через торрент | qTorrent

% Раздел Тема Автор DL S | L
Кино СССР [ 1.09 GB ] Мальва [1956 СССР SATRip-AVC от AVP Studio] AVP Studio Скачать
1 | 0
Кино СССР [ 745 MB ] Мальва [1956 СССР SATRip от AVP Studio] AVP Studio Скачать
1 | 0


>> Регистрируемся здесь <<






Отзывы и комментарии о схеме читаем и пишем здесь: ---> Отзывы и комментарии о схеме

Новые благодарочки в телеграм довольных пользователей:
скриншот   скриншот   скриншот   скриншот   скриншот
    Дорогой пользователь! Огромная просьба, поблагодарите релизера, оцените раздачу и оставьте свои комментарий, если Вы скачали Мальва через торрент бесплатно! Внесите свою лепту в развитие PiratBit!
    Комментировать посты могут только пользователи прошедшие не сложную регистрацию
    Показать сообщения:    

    Мальва через торрент
    Скачать бесплатно Мальва
    Мальва скачать торрент
    Мальва смотреть онлайн
    Cкачать фильм Мальва бесплатно
    Мальва скачать торрент в хорошем качестве
    Мальва смотреть онлайн бесплатно в хорошем качестве


    Вы не можете начинать темы
    Вы не можете отвечать на сообщения
    Вы не можете редактировать свои сообщения
    Вы не можете удалять свои сообщения
    Вы не можете голосовать в опросах
    Вы не можете прикреплять файлы к сообщениям
    Вы можете скачивать файлы