Мега распродажа FORZA HORIZON 4 ULTIMATE+ВСЕ DLC+ОНЛАЙН всего за 499р. 349 руб. (супер цена). Внимание количество ограничено!!!

Лицензия

30

iTunes

мы

iTunes

1

1 сезон

Чернобыль

1 сезон

Ральф против интернета

MVO

Покемон. Детектив Пикачу

8 сезон

Игра престолов

iTunes

1+1

ИГРА 18+

pack

ВАЖНО

!!Акция!!

Alien_RageХит недели

RePack

Resident Evil 21
pack

RePack

Metro:Exodus

!!Акция!!

Alien_Rage

RePack

fifa19

RePack

Assassins Creed: Odyssey

RePack

NEED FOR SPEED™ PAYBACK

3 сезон

9 сезон

Бесстыжие 9 сезон

Все сериалы

все сериалы на PB.wtf

RePack

FAR CRY 5
Ребята, катастрофически не хватает 2730р. для оплаты серверов за МАЙ (всвязи с блокировками трафик упал в 3 раза), 1-2р., выручайте.
  

Законопослушный гражданин / Law Abiding Citizen (Ф. Гэри Грей) [2009 г., триллер, драма, криминал, BDRip-AVC] DUB pb.wtf

Законопослушный гражданин через торрент pb.wtf

Качают: 1 [ 0 KB/s ]
Размер: 2.18 GB | Добавлен: 2 года 6 мес. назад | Торрент скачан:62 раза
Скачать  

17-12-2016 09:32 Законопослушный гражданин Скачать торрент  

Законопослушный гражданин / Law Abiding Citizen «Как остановить убийцу, если он уже за решеткой?»Год выпуска: 2009
Страна: США
Жанр: триллер, драма, криминал
Продолжительность: 01:58:06
Перевод: Профессиональный (полное дублирование) |R5 со вставками Киномания|
Субтитры: Русские (полные (2 вида), форсированные (только на непереведённые фразы)),
Украинские (форсированные (только на непереведённые фразы)), Английские


Режиссер: Ф. Гэри Грей

rating

В ролях:

Джейми Фокс, Джерард Батлер, Колм Мини, Брюс МакГилл, Лесли Бибб, Майкл Ирби, Грегори Итцин, Регина Холл, Эмеральд Янг, Кристиан Столт, Энни Корли, Ричард Портноу, Виола Дэвис, Майкл Келли (V), Джош Стюарт, Роджер Барт, Дэн Биттнер, Ивэн Харт Брюс

Описание:

Окружной прокурор пошел на сделку с преступниками и освободил их их тюрьмы. Тогда человек, чья жена и ребенок погибли от рук убийц решает отомстить прокурору, совершив правосудие самостоятельно. Его ловят и сажают в тюрьму, но он неожиданно ставит ультиматум: он будет убивать,не выходя из-за решетки, если его требования не будут выполнены. Смешное заявление, но вскоре люди правда начинают гибнуть...

Качество: BDRip-AVC
Формат: MKV
Видео кодек: H.264
Аудио кодек: AC3

Видео: 1032x430 (2,35:1), 25,000 fps, AVC MPEG-4 (x264), High@L4.1, 1748 Кbps avg, 0.164 bit/pixel
Аудио#1: Русский: 48 kHz, AC3 Dolby Digital, 3/2 (L,C,R,l,r) + LFE ch, ~448.00 kbps avg Профессиональный (полное дублирование)
Аудио#2: Английский: 48 kHz, AC3 Dolby Digital, 3/2 (L,C,R,l,r) + LFE ch, ~448.00 kbps avg Оригинал

(источник: BD-Remux / 1080p)


Общее
Уникальный идентификатор : 249488910244234983302505318254470152490 (0xBBB1D0F93EF5A288B60F8E918A8EC12A)
Полное имя : C:\Zakonoposlushnyi.Grazhdanin.2009.Unrated.DUAL.BDRip-AVC.AC3.mkv
Формат : Matroska
Версия формата : Version 4 / Version 2
Размер файла : 2,18 Гбайт
Продолжительность : 1 ч. 58 м.
Общий поток : 2647 Кбит/сек
Название фильма : Law Abiding Citizen (2009) by F. Gary Gray
Дата кодирования : UTC 2016-12-15 14:15:19
Программа кодирования : mkvmerge v7.0.0 ('Where We Going') 64bit built on Jun 9 2014 15:16:27
Библиотека кодирования : libebml v1.3.0 + libmatroska v1.4.1
Обложка : Yes
Attachments : cover.jpg

Видео
Идентификатор : 1
Формат : AVC
Формат/Информация : Advanced Video Codec
Профиль формата : High@L4.1
Параметр CABAC формата : Да
Параметр ReFrames формата : 11 кадров
Идентификатор кодека : V_MPEG4/ISO/AVC
Продолжительность : 1 ч. 58 м.
Битрейт : 1748 Кбит/сек
Ширина : 1032 пикселя
Высота : 430 пикселей
Соотношение сторон : 2,40:1
Режим частоты кадров : Постоянный
Частота кадров : 23,976 (24000/1001) кадра/сек
Цветовое пространство : YUV
Субдискретизация насыщенности : 4:2:0
Битовая глубина : 8 бит
Тип развёртки : Прогрессивная
Бит/(Пиксели*Кадры) : 0.164
Размер потока : 1,40 Гбайт (64%)
Заголовок : HQ-ViDEO [HRIME]
Библиотека кодирования : x264 core 148 r2744 b97ae06
Настройки программы : cabac=1 / ref=11 / deblock=1:-2:-1 / analyse=0x3:0x133 / me=umh / subme=11 / psy=1 / psy_rd=1.00:0.00 / mixed_ref=1 / me_range=32 / chroma_me=1 / trellis=2 / 8x8dct=1 / cqm=0 / deadzone=21,11 / fast_pskip=0 / chroma_qp_offset=-4 / threads=6 / lookahead_threads=1 / sliced_threads=0 / nr=0 / decimate=0 / interlaced=0 / bluray_compat=0 / constrained_intra=0 / bframes=14 / b_pyramid=2 / b_adapt=2 / b_bias=0 / direct=3 / weightb=1 / open_gop=0 / weightp=2 / keyint=230 / keyint_min=23 / scenecut=40 / intra_refresh=0 / rc_lookahead=60 / rc=2pass / mbtree=0 / bitrate=1748 / ratetol=1.0 / qcomp=0.65 / qpmin=0 / qpmax=69 / qpstep=4 / cplxblur=20.0 / qblur=0.5 / vbv_maxrate=50000 / vbv_bufsize=62500 / nal_hrd=none / filler=0 / ip_ratio=1.40 / pb_ratio=1.30 / aq=3:0.80
Язык : English
Default : Да
Forced : Нет

Аудио #1
Идентификатор : 2
Формат : AC-3
Формат/Информация : Audio Coding 3
Расширение режима : CM (complete main)
Параметр Endianness формата : Big
Идентификатор кодека : A_AC3
Продолжительность : 1 ч. 58 м.
Вид битрейта : Постоянный
Битрейт : 448 Кбит/сек
Каналы : 6 каналов
Расположение каналов : Front: L C R, Side: L R, LFE
Частота : 48,0 КГц
Частота кадров : 31,250 кадров/сек (1536 spf)
Битовая глубина : 16 бит
Метод сжатия : С потерями
Размер потока : 378 Мбайт (17%)
Заголовок : DUB, R5 +MVO, Kinomania - DD 5.1 @ 448 kbps
Язык : Russian
Default : Да
Forced : Нет

Аудио #2
Идентификатор : 3
Формат : AC-3
Формат/Информация : Audio Coding 3
Расширение режима : CM (complete main)
Параметр Endianness формата : Big
Идентификатор кодека : A_AC3
Продолжительность : 1 ч. 58 м.
Вид битрейта : Постоянный
Битрейт : 448 Кбит/сек
Каналы : 6 каналов
Расположение каналов : Front: L C R, Side: L R, LFE
Частота : 48,0 КГц
Частота кадров : 31,250 кадров/сек (1536 spf)
Битовая глубина : 16 бит
Метод сжатия : С потерями
Размер потока : 378 Мбайт (17%)
Заголовок : Original - DD 5.1 @ 448 kbps
Язык : English
Default : Нет
Forced : Нет

Текст #1
Идентификатор : 4
Формат : UTF-8
Идентификатор кодека : S_TEXT/UTF8
Идентификатор кодека/Информация : UTF-8 Plain Text
Заголовок : Forced, Unrated parts
Язык : Russian
Default : Нет
Forced : Нет

Текст #2
Идентификатор : 5
Формат : UTF-8
Идентификатор кодека : S_TEXT/UTF8
Идентификатор кодека/Информация : UTF-8 Plain Text
Заголовок : Full, 1
Язык : Russian
Default : Нет
Forced : Нет

Текст #3
Идентификатор : 6
Формат : UTF-8
Идентификатор кодека : S_TEXT/UTF8
Идентификатор кодека/Информация : UTF-8 Plain Text
Заголовок : Full, 2
Язык : Russian
Default : Нет
Forced : Нет

Текст #4
Идентификатор : 7
Формат : UTF-8
Идентификатор кодека : S_TEXT/UTF8
Идентификатор кодека/Информация : UTF-8 Plain Text
Заголовок : Forced, Unrated parts
Язык : Ukrainian
Default : Нет
Forced : Нет

Текст #5
Идентификатор : 8
Формат : UTF-8
Идентификатор кодека : S_TEXT/UTF8
Идентификатор кодека/Информация : UTF-8 Plain Text
Заголовок : Full
Язык : English
Default : Нет
Forced : Нет

Меню
00:00:00.000 : en:Home Invasion
00:03:51.898 : en:What You Can Prove in Court
00:11:57.467 : en:Lethal Injection
00:20:41.740 : en:You Can't Fight Fate
00:29:01.239 : en:Taken Into Custody
00:39:48.094 : en:Make the Deal
00:43:34.529 : en:Contempt of Court
00:50:00.915 : en:Steak with All the Trimmings
00:58:59.828 : en:Born Tactician
01:07:36.803 : en:This Broken Thing
01:16:41.388 : en:It's Gonna Be Biblical
01:23:25.918 : en:City Under Siege
01:29:52.220 : en:Subterranean Passage
01:37:04.944 : en:Center of Gravity
01:42:41.238 : en:I Don't Make Deals with Murderers
01:50:46.849 : en:End Credits
скриншот   скриншот   скриншот   скриншот  
pb.wtf



Скачать Законопослушный гражданин через торрент http://pic1.kartinco.top/images/11/54l3t.jpg Скачать фильм Законопослушный гражданин через торрент бесплантно в хорошем качестве Описание: Окружной прокурор пошел на сделку с преступниками и освободил их их тюрьмы. Тогда человек, чья жена и ребенок погибли от рук ... 9.9 10 13
Info! Золотая раздача, скачанное не засчитывается.
Торрент: Зарегистрирован [2016-12-17 09:32] · скачан: 62 раз
Статус: √ проверено
Размер: 2.18 GB
Как cкачать? Как скачать Законопослушный гражданин через торрент | qTorrent

% Раздел Тема Автор DL S | L
Фильмы [HD 720p, 1080p] (Хороший звук DUB, MVO) [ 7.46 GB ] Законопослушный гражданин / Law Abiding Citizen [2009 BDRip-HEVC 1080p ] [Unrated Cut] DUB [] bober100 Скачать
3 | 0
Ultra HD (UHD: 2K, 4K, 8K) — видео сверхвысокой чёткости [ 55.45 GB ] Законопослушный гражданин / Law Abiding Citizen [2009 UHD BDRemux 2160p] [Dolby Vision TV] DUB [] bober100 Скачать
1 | 0
Фильмы [HD 720p, 1080p] (Хороший звук DUB, MVO) [ 16.86 GB ] Законопослушный гражданин / Law Abiding Citizen [2009 BDRip 1080p by msltel] DUB MVO 4 x AVO | Режиссёрская версия msltel Скачать
1 | 0
Фильмы [HD 720p, 1080p] (Хороший звук DUB, MVO) [ 5.7 GB ] Законопослушный гражданин / Law Abiding Citizen [2009 BDRip 720p by msltel] DUB MVO 4 x AVO | Режиссёрская версия msltel Скачать
3 | 0
Ultra HD (UHD: 2K, 4K, 8K) — видео сверхвысокой чёткости [ 73.51 GB ] Законопослушный гражданин / Law Abiding Citizen [2009 UHD Blu-ray 2160p] DUB [HDR + Dolby Vision] sheker187 Скачать
1 | 0
Ultra HD (UHD: 2K, 4K, 8K) — видео сверхвысокой чёткости [ 54.22 GB ] Законопослушный гражданин / Law Abiding Citizen [2009 UHD BDRemux 2160p] MVO +DUB [] bober100 Скачать
1 | 0
Фильмы (BDRip, HDrip-AVC) (48-60 fps) [ 3.59 GB ] Законопослушный гражданин / Law Abiding Citizen [2009 BDRip-AVC 60fps Dub + MVO Unrated Director's Cut] от R.G. HD-Films Tiberiumsun69 Скачать
170 | 10


>> Регистрируемся здесь <<






Отзывы и комментарии о схеме читаем и пишем здесь: ---> Отзывы и комментарии о схеме

Новые благодарочки в телеграм довольных пользователей:
скриншот   скриншот   скриншот   скриншот   скриншот
    Дорогой пользователь! Огромная просьба, поблагодарите релизера, оцените раздачу и оставьте свои комментарий, если Вы скачали Законопослушный гражданин через торрент бесплатно! Внесите свою лепту в развитие PiratBit!
    Комментировать посты могут только пользователи прошедшие не сложную регистрацию
    Показать сообщения:    

    Законопослушный гражданин через торрент
    Скачать бесплатно Законопослушный гражданин
    Законопослушный гражданин скачать торрент
    Законопослушный гражданин смотреть онлайн
    Cкачать фильм Законопослушный гражданин бесплатно
    Законопослушный гражданин скачать торрент в хорошем качестве
    Законопослушный гражданин смотреть онлайн бесплатно в хорошем качестве


    Вы не можете начинать темы
    Вы не можете отвечать на сообщения
    Вы не можете редактировать свои сообщения
    Вы не можете удалять свои сообщения
    Вы не можете голосовать в опросах
    Вы не можете прикреплять файлы к сообщениям
    Вы можете скачивать файлы