Присоединяйтесь к нам в Telegram!, здесь всегда актуальный адрес сайта, оперативная поддержка и многое другое!!

>

5.9

iTunes

7.4

iTunes

9.4

1 сезон

1

7.4

2 сезон

7.2

iTunes

7.3

1 сезон

13

6.1

iTunes

8.3

GOG

30

ULTIMATE

pack

9.9

Лицензия

ВАЖНО

ИГРА 18+

pack

7.3

RePack

MK11

7.7

RePack

jed

7.8

RePack

fifa19

8.5

RePack

RDR2

RePack

NEED FOR SPEED™ PAYBACK

5 сезон

9 сезон

Бесстыжие 9 сезон

Все сериалы

все сериалы на PB.wtf

RePack

FAR CRY 5

Anonymous, доброе утро, мы катастрофически не успеваем собрать деньги на оплату серверов, помогите нам пожалуйста 5,10,15р., для нас важна любая помощь . В качестве благодарности мы отключим Вам всю рекламу на сайте (укажите свой ник в строку Ваше имя)!

×
  
Magnet ссылка

ВИА Гра - Кто ты мне [2016 г., Pop, HDTVRip 1080p] pb.wtf

ВИА Гра - Кто ты мне через торрент pb.wtf

Размер: 227 MB | Добавлен: 4 года 11 мес. назад | Торрент скачан:87 раз
Смотреть онлайн ВИА Гра - Кто ты мне | Скачать    Ребята, помогите собрать деньги на оплату серверов!!!

17-12-2016 09:35 ВИА Гра - Кто ты мне Скачать торрент  

ВИА Гра - Кто ты мне
Год выпуска: 2016
Жанр: Pop
Продолжительность: 00:05:02
Качество:HDTVRip 1080p
Формат: MPEG4
Видео кодек: AVC
Аудио кодек:AAC
Видео: MPEG4 AVC, 1920x1080, 25,000 fps, 5987 kbps
Аудио#1: AAC 48,0 kHz, 2 ch, 312 kbps
Общее
Полное имя : ВИА Гра - Кто ты мне..mp4
Формат : MPEG-4
Профиль формата : Base Media / Version 2
Идентификатор кодека : mp42
Размер файла : 227 Мбайт
Продолжительность : 5 м. 2 с.
Режим общего битрейта : Переменный
Общий поток : 6304 Кбит/сек

Видео
Идентификатор : 1
Формат : AVC
Формат/Информация : Advanced Video Codec
Профиль формата : High@L4.0
Параметр CABAC формата : Да
Параметр ReFrames формата : 5 кадров
Идентификатор кодека : avc1
Идентификатор кодека/Информация : Advanced Video Coding
Продолжительность : 5 м. 2 с.
Продолжительность оригинала : 5 м. 2 с.
Вид битрейта : Переменный
Битрейт : 5987 Кбит/сек
Максимальный битрейт : 40,0 Мбит/сек
Ширина : 1920 пикселей
Высота : 1080 пикселей
Соотношение сторон : 16:9
Режим частоты кадров : Постоянный
Частота кадров : 25,000 кадров/сек
Цветовое пространство : YUV
Субдискретизация насыщенности : 4:2:0
Битовая глубина : 8 бит
Тип развёртки : Прогрессивная
Бит/(Пиксели*Кадры) : 0.115
Размер потока : 216 Мбайт (95%)
Размер потока оригинала : 216 Мбайт (95%)
Язык : English
mdhd_Duration : 302280

Аудио
Идентификатор : 2
Формат : AAC
Формат/Информация : Advanced Audio Codec
Профиль формата : LC
Идентификатор кодека : 40
Продолжительность : 5 м. 2 с.
Продолжительность оригинала : 5 м. 2 с.
Вид битрейта : Переменный
Битрейт : 312 Кбит/сек
Каналы : 2 канала
Расположение каналов : Front: L R
Частота : 48,0 КГц
Метод сжатия : С потерями
Размер потока : 11,2 Мбайт (5%)
Размер потока оригинала : 11,2 Мбайт (5%)
Язык : English
mdhd_Duration : 302314
pb.wtf



Скачать ВИА Гра - Кто ты мне через торрент http://funkyimg.com/i/2m5h9.jpg Скачать, смотреть онлайн ВИА Гра - Кто ты мне [2016 г., Pop, HDTVRip 1080p] бесплантно в хорошем качестве Год выпуска: 2016Жанр: PopПродолжительность: ... 10 10 2
Торрент: Зарегистрирован [2016-12-17 09:35] · скачан: 87 раз
Статус: √ проверено
Размер: 227 MB
Как cкачать? Как скачать ВИА Гра - Кто ты мне через торрент | UTorrent

28-11-2019 20:33  

Отключить всю рекламу на сайте

17-12-2016 11:35 ВИА Гра - Кто ты мне Скачать торрент  

супер группаpb.wtf



17-12-2016 13:18 ВИА Гра - Кто ты мне Скачать торрент  

Тема сисек не раскрыта(((pb.wtf



    Дорогой пользователь! Огромная просьба, поблагодарите релизера, оцените раздачу и оставьте свои комментарий, если Вы скачали ВИА Гра - Кто ты мне через торрент бесплатно!
    Комментировать посты могут только пользователи прошедшие не сложную регистрацию
    Показать сообщения:    

    ВИА Гра - Кто ты мне через торрент
    Скачать бесплатно ВИА Гра - Кто ты мне
    ВИА Гра - Кто ты мне скачать торрент
    ВИА Гра - Кто ты мне смотреть онлайн
    Cкачать фильм ВИА Гра - Кто ты мне бесплатно
    ВИА Гра - Кто ты мне скачать торрент в хорошем качестве
    ВИА Гра - Кто ты мне смотреть онлайн бесплатно в хорошем качестве


    Вы не можете начинать темы
    Вы не можете отвечать на сообщения
    Вы не можете редактировать свои сообщения
    Вы не можете удалять свои сообщения
    Вы не можете голосовать в опросах
    Вы не можете прикреплять файлы к сообщениям
    Вы можете скачивать файлы