Ссылка на приватное зеркало нашего сайта всего за 1$. Внимание количество ограничено!!!

2 сезон

iTunes

1 сезон

1

2 сезон

2 сезон

iTunes

1 сезон

RePack

30

Ultimate

ВАЖНО

ИГРА 18+

pack

RePack

MK11
pack

Забери бонус

RePack

jed

!!Акция!!

Alien_Rage

RePack

fifa19

RePack

Assassins Creed: Odyssey

RePack

NEED FOR SPEED™ PAYBACK

4 сезон

9 сезон

Бесстыжие 9 сезон

Все сериалы

все сериалы на PB.wtf

RePack

FAR CRY 5
  

Детективное агентство Дирка Джентли / Dirk Gently's Holistic Detective Agency / Сезон 1 / 1-8 серия из 8 (Пако Кабесас, Дин Паризо, Майкл Патрик Джэнн) [2016 г., комедия, фантастика, WEB-DL 720p] [DVO] (Кубик в Кубе) pb.wtf

Детективное агентство Дирка Джентли через торрент pb.wtf

Размер: 11.59 GB | Добавлен: 3 года 10 мес. назад | Торрент скачан:341 раз
Скачать  

17-12-2016 20:55 Детективное агентство Дирка Джентли Скачать торрент  


Детективное агентство Дирка Джентли / Dirk Gently's Holistic Detective Agency


Год выпуска: 2016
Страна: США, Великобритания
Жанр: фантастика, комедия
Продолжительность: 1x~ 00:50:00
Перевод: Профессиональный (двухголосый, закадровый) [Кубик в Кубе]
Субтитры: английские

Режиссеры: Пако Кабесас, Дин Паризо, Майкл Патрик Джэнн

В ролях: Элайджа Вуд, Кристиан Бако, Сэмюэл Барнетт, Нил Браун мл., Аарон Дуглас, Фиона Дуриф, Майкл Эклунд, Джейд Эшете, Мфо Коахо, Ханна Маркс и др.

Описание: Сериал, рассказывающий о приключениях частного детектива Джентли и его невольного помощника Тодда. Каждый сезон они расследуют некую большую, казалось бы, совершенно безумную тайну и сталкиваются со странными и временами опасными персонажами. В каждой серии они приближаются к разгадке на несколько шагов, хотя их расследование страдает от недостатка логики.



Качество: WEB-DL 720p
Формат: MKV
Видео: V_MPEG4/ISO/AVC, 1280x718, ~4000 kbps avg, 23.976 fps
Аудио Rus: 48 kHz, AC3, 3/2 (L,C,R,l,r) + LFE ch, ~384.00 kbps avg |Двухголосый закадровый, Кубик в Кубе|
Аудио Eng: 48 kHz, AC3, 3/2 (L,C,R,l,r) + LFE ch, ~384.00 kbps avg
Format : Matroska
Format version : Version 4 / Version 2
File size : 1.79 GiB
Duration : 53mn 16s
Overall bit rate : 4 803 Kbps
Movie name : Dirk Gently's Holistic Detective Agency 01x01 (Horizons)
Encoded date : UTC 2016-10-26 07:27:59
Writing application : mkvmerge v6.7.0 ('Back to the Ground') 64bit built on Jan 8 2014 15:10:52
Writing library : libebml v1.3.0 + libmatroska v1.4.1

Video
ID : 1
Format : AVC
Format/Info : Advanced Video Codec
Format profile : High@L3.1
Format settings, CABAC : No
Format settings, ReFrames : 2 frames
Codec ID : V_MPEG4/ISO/AVC
Duration : 53mn 16s
Bit rate : 3 939 Kbps
Width : 1 280 pixels
Height : 718 pixels
Display aspect ratio : 16:9
Frame rate mode : Constant
Frame rate : 23.976 fps
Color space : YUV
Chroma subsampling : 4:2:0
Bit depth : 8 bits
Scan type : Progressive
Bits/(Pixel*Frame) : 0.179
Stream size : 1.47 GiB (82%)
Language : English
Default : Yes
Forced : No
Color primaries : BT.709
Transfer characteristics : BT.709
Matrix coefficients : BT.709
Color range : Limited

Audio #1
ID : 2
Format : AC-3
Format/Info : Audio Coding 3
Mode extension : CM (complete main)
Format settings, Endianness : Big
Codec ID : A_AC3
Duration : 53mn 16s
Bit rate mode : Constant
Bit rate : 384 Kbps
Channel(s) : 6 channels
Channel positions : Front: L C R, Side: L R, LFE
Sampling rate : 48.0 KHz
Bit depth : 16 bits
Compression mode : Lossy
Stream size : 146 MiB (8%)
Title : KvK 5.1
Language : Russian
Default : Yes
Forced : No

Audio #2
ID : 3
Format : AC-3
Format/Info : Audio Coding 3
Mode extension : CM (complete main)
Format settings, Endianness : Big
Codec ID : A_AC3
Duration : 53mn 16s
Bit rate mode : Constant
Bit rate : 384 Kbps
Channel(s) : 6 channels
Channel positions : Front: L C R, Side: L R, LFE
Sampling rate : 48.0 KHz
Bit depth : 16 bits
Compression mode : Lossy
Stream size : 146 MiB (8%)
Title : English 5.1
Language : English
Default : No
Forced : No

Text
ID : 4
Format : UTF-8
Codec ID : S_TEXT/UTF8
Codec ID/Info : UTF-8 Plain Text
Title : Eng sub
Language : English
Default : No
Forced : No
Внимание! Раздача ведётся путём добавления новых серий; при каждом добавлении создаётся новый торрент. Чтобы начать докачку новой серии, пользователям необходимо сделать следующее:
(1) остановить скачивание,
(2) удалить старый торрент у себя из клиента (старые серии удалять не надо),
(3) скачать новый торрент и запустить его у себя в клиенте вместо старого, при этом указать клиенту путь в старую папку куда и должно происходить скачивание новых серий.
Ваш клиент при этом должен произвести хеширование (проверку) старой папки (если не производит сам - помогите ему сделать это), и будет докачивать только те серии которых у вас ещё нет. Старые серии при этом не удаляются, а продолжают раздаваться!
Eсли вы уже удалили старые серии, то предотвратить повторную закачку старых серий можно, отжав галочку в соответствующих местах при запуске нового торрента. По возможности, желательно не удалять старые серии как можно дольше чтобы релизёр не столько продолжал раздавать старые серии, а смог сконцентрироваться на новых.
pb.wtf



Скачать Детективное агентство Дирка Джентли через торрент http://i85.fastpic.ru/big/2016/1212/27/7802c408b1f8650b1ead38a551e0ca27.png Скачать фильм Детективное агентство Дирка Джентли через торрент бесплантно в хорошем качестве Описание: Сериал, рассказывающий о приключениях частного детектива Джентли и его невольного помощника Тодда. Каждый сезон они расследуют ... 10 10 10
Info! Золотая раздача, скачанное не засчитывается.
Торрент: Зарегистрирован [2016-12-29 21:54] · скачан: 341 раз
Статус: √ проверено
Размер: 11.59 GB
Как cкачать? Как скачать Детективное агентство Дирка Джентли через торрент | qTorrent



Последний раз редактировалось: killermax2013 (2016-12-29 21:54), всего редактировалось 2 раз(а)

28-11-2019 20:33  

Отключить всю рекламу на сайте

29-12-2016 22:18 Детективное агентство Дирка Джентли Скачать торрент  

Так всё закручено, что нифига не поймёшь..кто, где, кого, зачем... необычная технология снимать фильмы.. в обратную сторону..сначала настоящее время, вторая серия "3 года до этого", третья серия "10 лет до этого".. короче, взрыв мозга.. Но, фильм интригует.. можно за день на одном дыхании просмотреть весь сезон.pb.wtf



15-12-2017 17:13 Детективное агентство Дирка Джентли Скачать торрент  

Первый сезон прошёл на ура и на этом стоило закончить съёмки сериала. Второй начинается (о великая американская полит. корректность!) с расставания двух гомо (не homo) сапцев. А дальше розовая блевота и псилоцебиновый передоз. Досматривать не стал, ждать продолжения не будуpb.wtf



    Дорогой пользователь! Огромная просьба, поблагодарите релизера, оцените раздачу и оставьте свои комментарий, если Вы скачали Детективное агентство Дирка Джентли через торрент бесплатно! Внесите свою лепту в развитие PiratBit!
    Комментировать посты могут только пользователи прошедшие не сложную регистрацию
    Показать сообщения:    

    Детективное агентство Дирка Джентли через торрент
    Скачать бесплатно Детективное агентство Дирка Джентли
    Детективное агентство Дирка Джентли скачать торрент
    Детективное агентство Дирка Джентли смотреть онлайн
    Cкачать фильм Детективное агентство Дирка Джентли бесплатно
    Детективное агентство Дирка Джентли скачать торрент в хорошем качестве
    Детективное агентство Дирка Джентли смотреть онлайн бесплатно в хорошем качестве


    Вы не можете начинать темы
    Вы не можете отвечать на сообщения
    Вы не можете редактировать свои сообщения
    Вы не можете удалять свои сообщения
    Вы не можете голосовать в опросах
    Вы не можете прикреплять файлы к сообщениям
    Вы можете скачивать файлы