новый адрес
Мега распродажа FORZA HORIZON 4 ULTIMATE+ВСЕ DLC+ОНЛАЙН всего за 499р. 349 руб. (супер цена). Внимание количество ограничено!!!

iTunes

1+1

iTunes

мы

iTunes

1

iTunes

Чернобыль

iTunes

Ральф против интернета

Лицензия

ПШазам

Лицензия

Игра престолов

Лицензия

30
pack

ВАЖНО

!!Акция!!

Alien_RageХит недели

RePack

Resident Evil 21

ИГРА 18+

pack

RePack

Metro:Exodus

!!Акция!!

Alien_Rage

RePack

fifa19

RePack

Assassins Creed: Odyssey

RePack

NEED FOR SPEED™ PAYBACK

3 сезон

9 сезон

Бесстыжие 9 сезон

Все сериалы

все сериалы на PB.wtf

RePack

FAR CRY 5
Ребята, катастрофически не хватает 1900р. для оплаты серверов за Октябрь (всвязи с блокировками трафик упал в 3 раза), 1-2р., выручайте.
  

Миколка-паровоз (Лев Голуб) [1956, СССР, приключения, SATRip от AVP Studio] pb.wtf

Миколка-паровоз через торрент pb.wtf

Размер: 1.09 GB | Добавлен: 2 года 10 мес. назад | Торрент скачан:7 раз
Скачать  

18-12-2016 09:52 Миколка-паровоз Скачать торрент  

Миколка-паровоз
Страна: СССР
Производство: Беларусьфильм

Жанр: приключения
Год выпуска: 1956
Продолжительность: 01:27:52

Перевод: Не требуется
Cубтитры: нет
Оригинальная аудиодорожка: русский

Режиссер: Лев Голуб

В ролях:
Владимир Гуськов, Георгий Гумилевский, Олеся Иванова, Николай Бармин, Степан Хацкевич, Александр Белов, Сергей Троицкий, Василий Бокарев, Тамара Трушина, Здислав Стомма, Леонид Рахленко, Люся Светлицкая, Коля Лопатин, Витя Докучаев...
Полный список актёров

Описание:
По мотивам одноимённой повести М. Лынькова.
События фильма начинаются в канун революции 1917 года. Маленькому Миколке (Вова Гуськов) 11 лет. Вся его короткая жизнь связана с железной дорогой. Миколкина семья живёт в старом грузовом вагоне, отец работает помощником машиниста в депо. Есть еще мать Ганна да старый смешной дед Остап (Георгий Гумилевский), который больше всего любит вспоминать, как он воевал артиллеристом на русско-турецкой войне. В гимназии, где учится Миколка, готовятся к торжественной встрече самого государя императора Николая Второго, поезд которого должен проследовать через их маленькую станцию. Миколка решает пробраться в вагон к царю и рассказать ему обо всех своих бедах и горестях. Но торжественной встречи императора не получилось: большевики забросали перрон листовками, и царский кортеж промчался мимо станции Забельск, не снижая скорости. Миколку до царя не допустили да ещё и наказали: выпороли розгами и упрятали в кутузку. Но тут как раз подоспел 1917 год с его бурными событиями, и вся судьба Миколки полностью переменилась. Он и отцу помогал устроить побег арестованных большевиков, и повоевать ему с немцами и беляками довелось...

Источник: DVB
Качество видео: SATRip
Формат видео: AVI

Видео: 704x528 (4:3), 25 fps, XviD ~ 1572 kbps avg, 0.169 bit/pixel
Аудио: 48 kHz, Dolby Digital AC3 2.0, 192 kbps

Раздача от:
Общее
Полное имя : Mikolka-parovoz.1956.SATRip_[New-team]_by_AVP_Studio.avi
Формат : AVI
Формат/Информация : Audio Video Interleave
Размер файла : 1,09 Гбайт
Продолжительность : 1 ч. 27 м.
Общий поток : 1774 Кбит/сек
Программа кодирования : VirtualDubMod 1.5.10.3 | www.virtualdub-fr.org || (build 2550/release)
Библиотека кодирования : VirtualDubMod build 2550/release

Видео
Идентификатор : 0
Формат : MPEG-4 Visual
Профиль формата : Advanced Simple@L5
Параметр BVOP формата : 1
Параметр QPel формата : Нет
Параметр GMC формата : Без точки перехода
Параметр матрицы формата : Выборочная
Идентификатор кодека : XVID
Идентификатор кодека/Подсказка : XviD
Продолжительность : 1 ч. 27 м.
Битрейт : 1572 Кбит/сек
Ширина : 704 пикселя
Высота : 528 пикселей
Соотношение сторон : 4:3
Частота кадров : 25,000 кадров/сек
Цветовое пространство : YUV
Субдискретизация насыщенности : 4:2:0
Битовая глубина : 8 бит
Тип развёртки : Прогрессивная
Метод сжатия : С потерями
Бит/(Пиксели*Кадры) : 0.169
Размер потока : 988 Мбайт (89%)
Библиотека кодирования : XviD 1.2.1 (UTC 2008-12-04)

Аудио
Идентификатор : 1
Формат : AC-3
Формат/Информация : Audio Coding 3
Расширение режима : CM (complete main)
Параметр Endianness формата : Big
Идентификатор кодека : 2000
Продолжительность : 1 ч. 27 м.
Вид битрейта : Постоянный
Битрейт : 192 Кбит/сек
Каналы : 2 канала
Расположение каналов : Front: L R
Частота : 48,0 КГц
Частота кадров : 31,250 кадров/сек (1536 spf)
Битовая глубина : 16 бит
Метод сжатия : С потерями
Размер потока : 121 Мбайт (11%)
Выравнивание : Разделение по промежуткам
Продолжительность промежутка : 40 мс. (1,00 видеокадр)
Время предзагрузки промежутка : 500 мс
pb.wtf



Скачать Миколка-паровоз через торрент http://s013.radikal.ru/i322/1612/00/c7ca72f97c84.png Скачать фильм Миколка-паровоз через торрент бесплантно в хорошем качестве Описание:По мотивам одноимённой повести М. Лынькова.События фильма начинаются в канун революции 1917 года. Маленькому Миколке (Вова ... 5 10 1
Info! Золотая раздача, скачанное не засчитывается.
Торрент: Зарегистрирован [2016-12-18 09:52] · скачан: 7 раз
Статус: √ проверено
Размер: 1.09 GB
Как cкачать? Как скачать Миколка-паровоз через торрент | qTorrent

% Раздел Тема Автор DL S | L
Кино СССР [ 1.09 GB ] Миколка-паровоз [1956 СССР SATRip-AVC от AVP Studio] AVP Studio Скачать
1 | 0
Кино СССР [ 744 MB ] Миколка-паровоз [1956 СССР SATRip от AVP Studio] AVP Studio Скачать
1 | 0


>> Регистрируемся здесь <<






Отзывы и комментарии о схеме читаем и пишем здесь: ---> Отзывы и комментарии о схеме

Новые благодарочки в телеграм довольных пользователей:
скриншот   скриншот   скриншот   скриншот   скриншот
    Дорогой пользователь! Огромная просьба, поблагодарите релизера, оцените раздачу и оставьте свои комментарий, если Вы скачали Миколка-паровоз через торрент бесплатно! Внесите свою лепту в развитие PiratBit!
    Комментировать посты могут только пользователи прошедшие не сложную регистрацию
    Показать сообщения:    

    Миколка-паровоз через торрент
    Скачать бесплатно Миколка-паровоз
    Миколка-паровоз скачать торрент
    Миколка-паровоз смотреть онлайн
    Cкачать фильм Миколка-паровоз бесплатно
    Миколка-паровоз скачать торрент в хорошем качестве
    Миколка-паровоз смотреть онлайн бесплатно в хорошем качестве


    Вы не можете начинать темы
    Вы не можете отвечать на сообщения
    Вы не можете редактировать свои сообщения
    Вы не можете удалять свои сообщения
    Вы не можете голосовать в опросах
    Вы не можете прикреплять файлы к сообщениям
    Вы можете скачивать файлы