Достать ножи: Стеклянная луковица

MVO

Добыча

Дубляж

Уэнсдэй

1 сезон

Тор

Дубляж

13 клиническая

1 сезон

Жестокая ночь

MVO

Одни из нас

1 сезон

Deluxe

pack

Рекомендуем

30

Пиратка

ВАЖНО

ВАЖНО

Ghostwire

Пиратка

jed

RePack

nioh2

RePack

RDR2

RePack

NEED FOR SPEED™ PAYBACK

RePack

скачать торрент

Кинопоиск HD

Острые козырьки 6 сезон

6 сезон

FAR CRY 6

RePack

скачать торрент

Лицензия

скачать торрент

MVO

1

1 сезон

скачать торрент

1 сезон

скачать торрент

Лицензия

  

Миколка-паровоз (Лев Голуб) [1956, СССР, приключения, SATRip от AVP Studio]

Миколка-паровоз через торрент pb.wtf

Размер: 744 MB | Добавлен: 6 лет 1 мес. назад | Торрент скачан:9 раз
Смотреть онлайн | Скачать | Поддержите нас   

18-12-2016 09:53 Миколка-паровоз Скачать торрент  

Миколка-паровоз
Страна: СССР
Производство: Беларусьфильм

Жанр: приключения
Год выпуска: 1956
Продолжительность: 01:27:52

Перевод: Не требуется
Cубтитры: нет
Оригинальная аудиодорожка: русский

Режиссер: Лев Голуб

В ролях:
Владимир Гуськов, Георгий Гумилевский, Олеся Иванова, Николай Бармин, Степан Хацкевич, Александр Белов, Сергей Троицкий, Василий Бокарев, Тамара Трушина, Здислав Стомма, Леонид Рахленко, Люся Светлицкая, Коля Лопатин, Витя Докучаев...
Полный список актёров

Описание:
По мотивам одноимённой повести М. Лынькова.
События фильма начинаются в канун революции 1917 года. Маленькому Миколке (Вова Гуськов) 11 лет. Вся его короткая жизнь связана с железной дорогой. Миколкина семья живёт в старом грузовом вагоне, отец работает помощником машиниста в депо. Есть еще мать Ганна да старый смешной дед Остап (Георгий Гумилевский), который больше всего любит вспоминать, как он воевал артиллеристом на русско-турецкой войне. В гимназии, где учится Миколка, готовятся к торжественной встрече самого государя императора Николая Второго, поезд которого должен проследовать через их маленькую станцию. Миколка решает пробраться в вагон к царю и рассказать ему обо всех своих бедах и горестях. Но торжественной встречи императора не получилось: большевики забросали перрон листовками, и царский кортеж промчался мимо станции Забельск, не снижая скорости. Миколку до царя не допустили да ещё и наказали: выпороли розгами и упрятали в кутузку. Но тут как раз подоспел 1917 год с его бурными событиями, и вся судьба Миколки полностью переменилась. Он и отцу помогал устроить побег арестованных большевиков, и повоевать ему с немцами и беляками довелось...

Источник: DVB
Качество видео: SATRip
Формат видео: AVI

Видео: 640x480 (4:3), 25 fps, XviD ~ 1047 kbps avg, 0.136 bit/pixel
Аудио: 48 kHz, MP3 2.0, 128 kbps

Раздача от:
Общее
Полное имя : Mikolka-parovoz.1956.SATRip-745_[New-team]_by_AVP_Studio.avi
Формат : AVI
Формат/Информация : Audio Video Interleave
Размер файла : 744 Мбайт
Продолжительность : 1 ч. 27 м.
Общий поток : 1185 Кбит/сек
Программа кодирования : VirtualDubMod 1.5.10.3 | www.virtualdub-fr.org || (build 2550/release)
Библиотека кодирования : VirtualDubMod build 2550/release

Видео
Идентификатор : 0
Формат : MPEG-4 Visual
Профиль формата : Advanced [email protected]
Параметр BVOP формата : 1
Параметр QPel формата : Нет
Параметр GMC формата : Без точки перехода
Параметр матрицы формата : Выборочная
Идентификатор кодека : XVID
Идентификатор кодека/Подсказка : XviD
Продолжительность : 1 ч. 27 м.
Битрейт : 1047 Кбит/сек
Ширина : 640 пикселей
Высота : 480 пикселей
Соотношение сторон : 4:3
Частота кадров : 25,000 кадров/сек
Цветовое пространство : YUV
Субдискретизация насыщенности : 4:2:0
Битовая глубина : 8 бит
Тип развёртки : Прогрессивная
Метод сжатия : С потерями
Бит/(Пиксели*Кадры) : 0.136
Размер потока : 658 Мбайт (88%)
Библиотека кодирования : XviD 1.2.1 (UTC 2008-12-04)

Аудио
Идентификатор : 1
Формат : MPEG Audio
Версия формата : Version 1
Профиль формата : Layer 3
Идентификатор кодека : 55
Идентификатор кодека/Подсказка : MP3
Продолжительность : 1 ч. 27 м.
Вид битрейта : Постоянный
Битрейт : 128 Кбит/сек
Каналы : 2 канала
Частота : 48,0 КГц
Метод сжатия : С потерями
Размер потока : 80,4 Мбайт (11%)
Выравнивание : Соединение по промежуткам
Продолжительность промежутка : 40 мс. (1,00 видеокадр)
Время предзагрузки промежутка : 504 мс.
Библиотека кодирования : LAME3.99r
Настройки программы : -m s -V 4 -q 2 -lowpass 17 -b 128



Скачать Миколка-паровоз через торрент http://s013.radikal.ru/i322/1612/00/c7ca72f97c84.png Скачать, смотреть онлайн Миколка-паровоз бесплантно в хорошем качестве Описание:По мотивам одноимённой повести М. Лынькова.События фильма начинаются в канун революции 1917 года. Маленькому Миколке (Вова ... 5 10 1
Info! Золотая раздача, скачанное не засчитывается.
Торрент: Зарегистрирован [2016-12-18 09:53] · скачан: 9 раз
Статус: √ проверено
Размер: 744 MB
Как cкачать? Как скачать Миколка-паровоз через торрент | UTorrent

% Раздел Тема Автор DL S | L
Кино СССР [ 1.09 GB ] Миколка-паровоз | | SATRip-AVC от AVP Studio AVP Studio Скачать
1 | 0
Кино СССР [ 1.09 GB ] Миколка-паровоз | | SATRip от AVP Studio AVP Studio Скачать
1 | 0

28-11-2019 20:33  


Отключить вcю реклaмy на сайте, в т.ч. и в плеере онлайн просмотра!

    Дорогой пользователь! Огромная просьба, поблагодарите релизера, оцените раздачу и оставьте свои комментарий, если Вы скачали Миколка-паровоз через торрент бесплатно!!
    Комментировать посты могут только пользователи прошедшие не сложную регистрацию
    Показать сообщения:    


    Миколка-паровоз через торрент
    Скачать бесплатно Миколка-паровоз
    Миколка-паровоз скачать торрент
    Миколка-паровоз смотреть онлайн
    Cкачать фильм Миколка-паровоз бесплатно
    Миколка-паровоз скачать торрент в хорошем качестве
    Миколка-паровоз смотреть онлайн бесплатно в хорошем качестве
    Вы не можете начинать темы
    Вы не можете отвечать на сообщения
    Вы не можете редактировать свои сообщения
    Вы не можете удалять свои сообщения
    Вы не можете голосовать в опросах
    Вы не можете прикреплять файлы к сообщениям
    Вы можете скачивать файлы
    Миколка-паровоз [1956, СССР, приключения, SATRip от AVP Studio] смотреть онлайн, скачать торрент picoco.icu