Ссылка на приватное зеркало нашего сайта всего за 1$. Внимание количество ограничено!!!

2 сезон

iTunes

1 сезон

1

iTunes

iTunes

iTunes

1 сезон

RePack

30

ИГРА 18+

pack

ВАЖНО

!!Акция!!

Alien_RageХит недели

RePack

MK11
pack

Забери бонус

RePack

jed

!!Акция!!

Alien_Rage

RePack

fifa19

RePack

Assassins Creed: Odyssey

RePack

NEED FOR SPEED™ PAYBACK

4 сезон

9 сезон

Бесстыжие 9 сезон

Все сериалы

все сериалы на PB.wtf

RePack

FAR CRY 5
  

Забудь и вспомни / Сезон 1 / серии 1-12 из 12 (Максим Мехеда) [2016 г., мелодрама, SATRip] pb.wtf

Забудь и вспомни через торрент pb.wtf

Размер: 7.34 GB | Добавлен: 4 года назад | Торрент скачан:105 раз
Скачать  

15-10-2016 04:14 Забудь и вспомни Скачать торрент  

Забудь и вспомни
Год выпуска: 2016
Страна: Украина
Жанр: мелодрама
Продолжительность: 44 м. 51 с.
Субтитры: Есть(Украинские)

Режиссер: Максим Мехеда
Продюссер: Виктор Мирский, Екатерина Швец
Сценарий: Дарья Фоминых-Дезомбре, Магомед Бачаев

Премьера в мире: 16 мая 2016



В ролях: Александр Кобзарь
Анна Васильева
Антон Соколов
Александр Гетманский
Татьяна Лялина
Ирина Мак
Михаил Досенко
Яков Кучеревский
Оксана Жданова
Екатерина Шоломицкая

Описание: Состоятельный жених, безупречные манеры, красивые ухаживания, пышная свадьба… Казалось бы, предел мечтаний многих девушек, не говоря уже о 17-летней воспитаннице детского дома Наташе. Но что скрывается за фасадом красивой жизни? Обнаружив дневник своей предшественницы, погибшей при странных обстоятельствах первой супруги бизнесмена и политика Леонида Мазова, Наташа понимает: бесследно исчезнуть — её единственный шанс сохранить жизнь. И девушка инсценирует собственную смерть. Однако спустя 7 лет прошлое находит её.

Качество: SATRip
Формат: AVI
Видео кодек: XviD
Аудио кодек: MP3
Видео: XviD,720х400,1705 Кбит/сек,25,000 кадров/сек
Аудио#1: МР3,2ch,192 Кбит/сек
скриншот  скриншот  скриншот  скриншот  





Общее
Полное имя : C:\Users\666\Downloads\Забудь и вспомни (2016)\Забудь и вспомни.(01.seriya).2016.XviD.SATRip.by.simka.avi
Формат : AVI
Формат/Информация : Audio Video Interleave
Размер файла : 578 Мбайт
Продолжительность : 44 м. 51 с.
Общий поток : 1802 Кбит/сек
Программа кодирования : VirtualDubModRus 1.5.10.2 (build 2542/release)
Библиотека кодирования : VirtualDubMod build 2542/release

Видео
Идентификатор : 0
Формат : MPEG-4 Visual
Профиль формата : Advanced Simple@L5
Параметр BVOP формата : 1
Параметр QPel формата : Нет
Параметр GMC формата : Без точки перехода
Параметр матрицы формата : Default (MPEG)
Идентификатор кодека : XVID
Идентификатор кодека/Подсказка : XviD
Продолжительность : 44 м. 51 с.
Продолжительность оригинала : 2 м. 52 с.
Битрейт : 1705 Кбит/сек
Ширина : 720 пикселей
Высота : 400 пикселей
Соотношение сторон : 16:9
Частота кадров : 25,000 кадров/сек
Цветовое пространство : YUV
Субдискретизация насыщенности : 4:2:0
Битовая глубина : 8 бит
Тип развёртки : Прогрессивная
Метод сжатия : С потерями
Бит/(Пиксели*Кадры) : 0.237
Размер потока : 35,0 Мбайт (6%)
Библиотека кодирования : XviD 1.2.1 (UTC 2008-12-04)

Аудио
Идентификатор : 1
Формат : MPEG Audio
Версия формата : Version 1
Профиль формата : Layer 3
Режим : Joint stereo
Расширение режима : MS Stereo
Идентификатор кодека : 55
Идентификатор кодека/Подсказка : MP3
Продолжительность : 44 м. 51 с.
Продолжительность оригинала : 2 м. 52 с.
Вид битрейта : Постоянный
Битрейт : 192 Кбит/сек
Каналы : 2 канала
Частота : 48,0 КГц
Метод сжатия : С потерями
Размер потока : 3,95 Мбайт (1%)
Выравнивание : Соединение по промежуткам
Продолжительность промежутка : 40 мс. (1,00 видеокадр)
Время предзагрузки промежутка : 504 мс.
Библиотека кодирования : LAME3.99r
Настройки программы : -m j -V 4 -q 2 -lowpass 18.6 -b 192

pb.wtf



Скачать Забудь и вспомни через торрент http://pic1.kartinco.top/images/10/w8lp3.jpg Скачать фильм Забудь и вспомни через торрент бесплантно в хорошем качестве Описание: Состоятельный жених, безупречные манеры, красивые ухаживания, пышная свадьба… Казалось бы, предел мечтаний многих девушек, не ... 10 10 3
Торрент: Зарегистрирован [2016-10-15 04:14] · скачан: 105 раз
Статус: √ проверено
Размер: 7.34 GB
Как cкачать? Как скачать Забудь и вспомни через торрент | qTorrent

28-11-2019 20:33  

Отключить всю рекламу на сайте

    Дорогой пользователь! Огромная просьба, поблагодарите релизера, оцените раздачу и оставьте свои комментарий, если Вы скачали Забудь и вспомни через торрент бесплатно! Внесите свою лепту в развитие PiratBit!
    Комментировать посты могут только пользователи прошедшие не сложную регистрацию
    Показать сообщения:    

    Забудь и вспомни через торрент
    Скачать бесплатно Забудь и вспомни
    Забудь и вспомни скачать торрент
    Забудь и вспомни смотреть онлайн
    Cкачать фильм Забудь и вспомни бесплатно
    Забудь и вспомни скачать торрент в хорошем качестве
    Забудь и вспомни смотреть онлайн бесплатно в хорошем качестве


    Вы не можете начинать темы
    Вы не можете отвечать на сообщения
    Вы не можете редактировать свои сообщения
    Вы не можете удалять свои сообщения
    Вы не можете голосовать в опросах
    Вы не можете прикреплять файлы к сообщениям
    Вы можете скачивать файлы