Ссылка на приватное зеркало нашего сайта всего за 1$. Внимание количество ограничено!!!

2 сезон

iTunes

1 сезон

1

iTunes

iTunes

iTunes

1 сезон

RePack

30

ИГРА 18+

pack

ВАЖНО

!!Акция!!

Alien_RageХит недели

RePack

MK11
pack

Забери бонус

RePack

jed

!!Акция!!

Alien_Rage

RePack

fifa19

RePack

Assassins Creed: Odyssey

RePack

NEED FOR SPEED™ PAYBACK

4 сезон

9 сезон

Бесстыжие 9 сезон

Все сериалы

все сериалы на PB.wtf

RePack

FAR CRY 5
  

Октябрьское небо / October Sky (Джо Джонстон) [1999, драма, семейный, биография, BDRip 720p by msltel] 2 x MVO, AVO pb.wtf

Октябрьское небо через торрент pb.wtf

Размер: 4.31 GB | Добавлен: 3 года 10 мес. назад | Торрент скачан:67 раз
Скачать  

19-12-2016 07:10 Октябрьское небо Скачать торрент  

Название: Октябрьское небо
Оригинальное название: October Sky
Год выпуска: 1999
Страна: США
Жанр: драма, семейный, биография
Продолжительность: 01:47:28
Перевод: профессиональный многоголосый, авторский

Режиссёр: Джо Джонстон

В ролях: Джейк Джилленхол, Крис Купер, Лора Дерн, Крис Оуэн, Уильям Ли Скотт, Чад Линдберг, Натали Кэнердей, Скотт Майлз, Рэнди Стриплинг, Крис Эллис, Илья Баскин, Кортни Коул-Фендли, Дэвид Двайер, Терри Лафлин, Калли Холлстер, Дэвид Коуплэнд, Д. Хендерсон Бэйкер, Том Кэги, Дональд Торн, Джастин Уитсетт, Ларри Ру, Нева Хауэлл, Терри Нинхус, Брэйди Коулмэн, Рик Форрестер

Описание: В октябре 1957 года произошло событие эпохального значения: Советский Союз, впервые в истории человечества, запустил на земную орбиту первый «Спутник». Мир стал другим. Запуск советской ракеты произвёл неизгладимое впечатление на мальчика Хомера Хикэма из небольшого шахтёрского городка Колвуд в Западной Вирджинии. Всерьёз «заболевший» космосом, Хомер решает построить собственную ракету. В этом ему начинают помогать трое друзей и школьная учительница. Однако отец Хомера, шахтёр-работяга, видящий сына только в роли продолжателя своего нелёгкого дела, категорически противится его стремлениям. Но, несмотря ни на что, мальчик сделает всё возможное и невозможное, чтобы его мечта стала явью... Фильм основан на реальных событиях.



Качество: BDRip 720p Сравнение с исходником
Формат: MKV
Видео: MPEG-4 AVC, 4425 Кбит/с, 1280x544, 23,976 кадра/с
Аудио 1: русский, AC3, 224 kbps, 2 ch, 48 kHz [профессиональный многоголосый, Премьер видео]
Аудио 2: русский, AC3, 192 kbps, 2 ch, 48 kHz [профессиональный многоголосый, ТК Россия]
Аудио 3: русский, AC3, 448 kbps, 6 ch, 48 kHz [авторский, Юрий Живов]
Аудио 4: английский, AC3, 448 kbps, 6 ch, 48 kHz [оригинал]
Субтитры: английские (для слабослышащих)
Имеются неименованные главы/чаптеры.
Общее
Уникальный идентификатор : 216976936142953579561259846907814019818 (0xA33C3CE41FFF830D832EBE1A2B4102EA)
Полное имя : D:\Video\Октябрьское небо.1999.BDRip.720p by msltel.mkv
Формат : Matroska
Версия формата : Version 4 / Version 2
Размер файла : 4,31 Гбайт
Продолжительность : 1 ч. 47 м.
Общий поток : 5740 Кбит/сек
Название фильма : Rip by msltel
Дата кодирования : UTC 2016-12-19 03:00:26
Программа кодирования : mkvmerge v8.2.0 ('World of Adventure') 64bit
Библиотека кодирования : libebml v1.3.1 + libmatroska v1.4.2

Видео
Идентификатор : 1
Формат : AVC
Формат/Информация : Advanced Video Codec
Профиль формата : High@L4.1
Параметр CABAC формата : Да
Параметр ReFrames формата : 9 кадров
Идентификатор кодека : V_MPEG4/ISO/AVC
Продолжительность : 1 ч. 47 м.
Битрейт : 4425 Кбит/сек
Ширина : 1280 пикселей
Высота : 544 пикселя
Соотношение сторон : 2,35:1
Режим частоты кадров : Постоянный
Частота кадров : 23,976 (24000/1001) кадра/сек
Цветовое пространство : YUV
Субдискретизация насыщенности : 4:2:0
Битовая глубина : 8 бит
Тип развёртки : Прогрессивная
Бит/(Пиксели*Кадры) : 0.265
Размер потока : 3,32 Гбайт (77%)
Библиотека кодирования : x264 core 146 r2538 121396c
Настройки программы : cabac=1 / ref=9 / deblock=1:-3:-3 / analyse=0x3:0x113 / me=umh / subme=9 / psy=1 / psy_rd=1.00:0.15 / mixed_ref=1 / me_range=32 / chroma_me=1 / trellis=1 / 8x8dct=1 / cqm=0 / deadzone=21,11 / fast_pskip=0 / chroma_qp_offset=-3 / threads=6 / lookahead_threads=1 / sliced_threads=0 / nr=0 / decimate=1 / interlaced=0 / bluray_compat=0 / constrained_intra=0 / bframes=14 / b_pyramid=2 / b_adapt=2 / b_bias=0 / direct=1 / weightb=0 / open_gop=0 / weightp=2 / keyint=230 / keyint_min=23 / scenecut=40 / intra_refresh=0 / rc_lookahead=40 / rc=crf / mbtree=0 / crf=18.4 / qcomp=0.60 / qpmin=0 / qpmax=69 / qpstep=4 / vbv_maxrate=50000 / vbv_bufsize=62500 / crf_max=0.0 / nal_hrd=none / filler=0 / ip_ratio=1.40 / pb_ratio=1.30 / aq=1:1.00
Язык : English
Default : Да
Forced : Нет

Аудио #1
Идентификатор : 2
Формат : AC-3
Формат/Информация : Audio Coding 3
Расширение режима : CM (complete main)
Параметр Endianness формата : Big
Идентификатор кодека : A_AC3
Продолжительность : 1 ч. 47 м.
Вид битрейта : Постоянный
Битрейт : 224 Кбит/сек
Каналы : 2 канала
Расположение каналов : Front: L R
Частота : 48,0 КГц
Частота кадров : 31,250 кадров/сек (1536 spf)
Метод сжатия : С потерями
Размер потока : 172 Мбайт (4%)
Заголовок : MVO (Премьер видео)
Язык : Russian
Default : Да
Forced : Нет

Аудио #2
Идентификатор : 3
Формат : AC-3
Формат/Информация : Audio Coding 3
Расширение режима : CM (complete main)
Параметр Endianness формата : Big
Идентификатор кодека : A_AC3
Продолжительность : 1 ч. 47 м.
Вид битрейта : Постоянный
Битрейт : 192 Кбит/сек
Каналы : 2 канала
Расположение каналов : Front: L R
Частота : 48,0 КГц
Частота кадров : 31,250 кадров/сек (1536 spf)
Метод сжатия : С потерями
Размер потока : 148 Мбайт (3%)
Заголовок : MVO (ТК Россия)
Язык : Russian
Default : Нет
Forced : Нет

Аудио #3
Идентификатор : 4
Формат : AC-3
Формат/Информация : Audio Coding 3
Расширение режима : CM (complete main)
Параметр Endianness формата : Big
Идентификатор кодека : A_AC3
Продолжительность : 1 ч. 47 м.
Вид битрейта : Постоянный
Битрейт : 448 Кбит/сек
Каналы : 6 каналов
Расположение каналов : Front: L C R, Side: L R, LFE
Частота : 48,0 КГц
Частота кадров : 31,250 кадров/сек (1536 spf)
Метод сжатия : С потерями
Размер потока : 344 Мбайт (8%)
Заголовок : AVO (Юрий Живов)
Язык : Russian
Default : Нет
Forced : Нет

Аудио #4
Идентификатор : 5
Формат : AC-3
Формат/Информация : Audio Coding 3
Расширение режима : CM (complete main)
Параметр Endianness формата : Big
Идентификатор кодека : A_AC3
Продолжительность : 1 ч. 47 м.
Вид битрейта : Постоянный
Битрейт : 448 Кбит/сек
Каналы : 6 каналов
Расположение каналов : Front: L C R, Side: L R, LFE
Частота : 48,0 КГц
Частота кадров : 31,250 кадров/сек (1536 spf)
Метод сжатия : С потерями
Размер потока : 344 Мбайт (8%)
Заголовок : original
Язык : English
Default : Нет
Forced : Нет

Текст
Идентификатор : 6
Формат : UTF-8
Идентификатор кодека : S_TEXT/UTF8
Идентификатор кодека/Информация : UTF-8 Plain Text
Продолжительность : 1 ч. 44 м.
Битрейт : 62 бит/сек
Count of elements : 1485
Размер потока : 48,2 Кбайт (0%)
Заголовок : английские (для слабослышащих)
Язык : English
Default : Нет
Forced : Нет

Меню
00:00:00.000 : :Chapter 01
00:02:29.566 : :Chapter 02
00:09:05.544 : :Chapter 03
00:17:48.859 : :Chapter 04
00:25:19.684 : :Chapter 05
00:34:35.198 : :Chapter 06
00:38:10.663 : :Chapter 07
00:41:12.511 : :Chapter 08
00:46:21.695 : :Chapter 09
00:53:14.900 : :Chapter 10
00:54:42.529 : :Chapter 11
01:07:16.407 : :Chapter 12
01:12:30.637 : :Chapter 13
01:21:26.965 : :Chapter 14
01:25:32.961 : :Chapter 15
01:29:20.271 : :Chapter 16
01:35:14.500 : :Chapter 17
01:39:58.659 : :Chapter 18
01:47:28.733 : :Chapter 19
pb.wtf



Скачать Октябрьское небо через торрент http://s020.radikal.ru/i711/1612/75/88e495178d9e.jpg Скачать фильм Октябрьское небо через торрент бесплантно в хорошем качестве Описание: В октябре 1957 года произошло событие эпохального значения: Советский Союз, впервые в истории человечества, запустил на земную ... 1 10 1
Info! Золотая раздача, скачанное не засчитывается.
Торрент: Зарегистрирован [2016-12-19 07:10] · скачан: 67 раз
Статус: √ проверено
Размер: 4.31 GB
Как cкачать? Как скачать Октябрьское небо через торрент | qTorrent

% Раздел Тема Автор DL S | L
Фильмы [HD 720p, 1080p] (Хороший звук DUB, MVO) [ 11.5 GB ] Октябрьское небо / October Sky [1999 биография BDRip 1080p by msltel] 2 x MVO AVO msltel Скачать
1 | 0

28-11-2019 20:33  

Отключить всю рекламу на сайте

    Дорогой пользователь! Огромная просьба, поблагодарите релизера, оцените раздачу и оставьте свои комментарий, если Вы скачали Октябрьское небо через торрент бесплатно! Внесите свою лепту в развитие PiratBit!
    Комментировать посты могут только пользователи прошедшие не сложную регистрацию
    Показать сообщения:    

    Октябрьское небо через торрент
    Скачать бесплатно Октябрьское небо
    Октябрьское небо скачать торрент
    Октябрьское небо смотреть онлайн
    Cкачать фильм Октябрьское небо бесплатно
    Октябрьское небо скачать торрент в хорошем качестве
    Октябрьское небо смотреть онлайн бесплатно в хорошем качестве


    Вы не можете начинать темы
    Вы не можете отвечать на сообщения
    Вы не можете редактировать свои сообщения
    Вы не можете удалять свои сообщения
    Вы не можете голосовать в опросах
    Вы не можете прикреплять файлы к сообщениям
    Вы можете скачивать файлы