Лицензия

MVO

1

1 сезон

Лицензия

Лицензия

13

MVO

1 сезон

Deluxe Edition

pack

Рекомендуем

30

Repack

ВАЖНО

ВАЖНО

Ghostwire

RePack

jed

RePack

fifa19

RePack

RDR2

RePack

NEED FOR SPEED™ PAYBACK

RePack

Кинопоиск HD

 Острые козырьки 6 сезон

6 сезон

FAR CRY 6

RePack

Лицензия

MVO

1

1 сезон

1 сезон

Лицензия

  

Забытый / Серии: 1-4 из 4 (Владимир Щегольков) [2011, Россия, драма, криминал, HDTVRip от AVP Studio]

Забытый через торрент pb.wtf

Размер: 2.18 GB | Добавлен: 5 лет 9 мес. назад | Торрент скачан:159 раз
Смотреть онлайн Забытый | Скачать   

19-12-2016 09:21 Забытый Скачать торрент  

Забытый
«Ниточки преступления уходят на самый верх, и над героями нависает смертельная опасность»

Страна: Россия
Производство: компания «Всемирные Русские Студии»

Жанр: драма, криминал
Год выпуска: 1956
Продолжительность: 4 серии ~ по 51-52 минуты

Перевод: не требуется
Субтитры: нет
Оригинальная аудиодорожка: русский

Режиссер: Владимир Щегольков

В ролях:
Евгений Цыганов, Мария Машкова, Александр Ильин (младший), Алексей Серебряков, Андрей Мерзликин, Дарья Мороз, Дмитрий Муляр, Ивар Калныньш, Арнис Лицитис, Гундарс Аболиньш, Андрис Кейшс, Вилис Даудзиньш, Анете Саулите, Катрина Шмате, Мария Берзиня, Янис Паукштелло, Анда Зайце, Лиена Шмуксте, Индра Бурковска, Берта Вилипсоне, Улдис Анже, Айварс Силиньш...
Полный список актёров

Описание:
По по повести Анатолия Азольского "Облдрамтеатр".
1949 год. Бывший фронтовик и бывший следователь Сергей Гастев отходит от розыскной деятельности, столкнувшись с неожиданной для себя проблемой чиновничьей взаимовыручки. Попытки восстановить справедливость едва не заканчиваются для него самого тюремной решеткой. Гастев решает ограничить свою деятельность преподаванием римского права в университете небольшого областного городка. В личной жизни Сергея тоже все не просто: роман с городским комсомольским лидером Людмилой Мишиной (Мария Машкова) приходится тщательно скрывать...
Внезапно город потрясает ряд дерзких преступлений. На усиление в срочно созванный штаб по борьбе с бандитизмом решено привлечь и Гастева, как очень талантливого в прошлом сыщика. В помощь Сергею дают молоденького сельского участкового Илью Ропню (Александр Ильин). Однако пытаясь раскрыть одно преступление, герои невольно нападают на след другого - грандиозной финансовой аферы, связанной с 70-летием Сталина. Гастев начинает подозревать, что в афере замешана и его любимая женщина - Людмила Мишина. Чем больше погружается в дело Гастев, тем яснее становится, что ниточки преступления уходят на самый верх, и над героями нависает смертельная опасность…

Исходник: HDTV 1080i
Качество видео: HDTVRip
Формат видео: AVI

Видео: 720х304 (2,35:1), 25 fps, XviD ~ 1043 kbps avg, 0.191 bit/pixel
Аудио: 48 kHz, Dolby Digital AC3 5.1, 448 kbps

Раздача от:
Общее
Полное имя : Zabytyy.2011.HDTVRip_[New-team]_by_AVP_Studio\01.avi
Формат : AVI
Формат/Информация : Audio Video Interleave
Размер файла : 554 Мбайт
Продолжительность : 51 м. 37 с.
Общий поток : 1500 Кбит/сек
Программа кодирования : VirtualDubMod 1.5.10.3 | www.virtualdub-fr.org || (build 2550/release)
Библиотека кодирования : VirtualDubMod build 2550/release

Видео
Идентификатор : 0
Формат : MPEG-4 Visual
Профиль формата : Advanced [email protected]
Параметр BVOP формата : 1
Параметр QPel формата : Нет
Параметр GMC формата : Без точки перехода
Параметр матрицы формата : Выборочная
Идентификатор кодека : XVID
Идентификатор кодека/Подсказка : XviD
Продолжительность : 51 м. 37 с.
Битрейт : 1043 Кбит/сек
Ширина : 720 пикселей
Высота : 304 пикселя
Соотношение сторон : 2,35:1
Частота кадров : 25,000 кадров/сек
Цветовое пространство : YUV
Субдискретизация насыщенности : 4:2:0
Битовая глубина : 8 бит
Тип развёртки : Прогрессивная
Метод сжатия : С потерями
Бит/(Пиксели*Кадры) : 0.191
Размер потока : 385 Мбайт (69%)
Библиотека кодирования : XviD 1.2.1 (UTC 2008-12-04)

Аудио
Идентификатор : 1
Формат : AC-3
Формат/Информация : Audio Coding 3
Расширение режима : CM (complete main)
Параметр Endianness формата : Big
Идентификатор кодека : 2000
Продолжительность : 51 м. 37 с.
Вид битрейта : Постоянный
Битрейт : 448 Кбит/сек
Каналы : 6 каналов
Расположение каналов : Front: L C R, Side: L R, LFE
Частота : 48,0 КГц
Частота кадров : 31,250 кадров/сек (1536 spf)
Битовая глубина : 16 бит
Метод сжатия : С потерями
Размер потока : 165 Мбайт (30%)
Выравнивание : Разделение по промежуткам
Продолжительность промежутка : 40 мс. (1,00 видеокадр)
Время предзагрузки промежутка : 500 мс



Скачать Забытый через торрент http://s017.radikal.ru/i412/1612/7b/beaae123b9c3.png Скачать, смотреть онлайн Забытый бесплантно в хорошем качестве Описание:По по повести Анатолия Азольского "Облдрамтеатр".1949 год. Бывший фронтовик и бывший следователь Сергей Гастев отходит от ... 7.8 10 4
Info! Золотая раздача, скачанное не засчитывается.
Торрент: Зарегистрирован [2016-12-19 09:21] · скачан: 159 раз
Статус: √ проверено
Размер: 2.18 GB
Как cкачать? Как скачать Забытый через торрент | UTorrent

% Раздел Тема Автор DL S | L
Наши сериалы [ 4.37 GB ] Забытый / Серии: 1-4 из 4 | | HDTVRip 720p от AVP Studio AVP Studio Скачать
1 | 0
Наши сериалы [ 3.72 GB ] Забытый / Серии: 1-4 из 4 | | HDTVRip-AVC от AVP Studio AVP Studio Скачать
1 | 0
Наши сериалы [ 2.19 GB ] Забытый / | | DVDRip wekotila Скачать
1 | 0

28-11-2019 20:33  

Отключить вcю реклaмy на сайте

    Дорогой пользователь! Огромная просьба, поблагодарите релизера, оцените раздачу и оставьте свои комментарий, если Вы скачали Забытый через торрент бесплатно!!
    Комментировать посты могут только пользователи прошедшие не сложную регистрацию
    Показать сообщения:    


    Забытый через торрент
    Скачать бесплатно Забытый
    Забытый скачать торрент
    Забытый смотреть онлайн
    Cкачать фильм Забытый бесплатно
    Забытый скачать торрент в хорошем качестве
    Забытый смотреть онлайн бесплатно в хорошем качестве
    Вы не можете начинать темы
    Вы не можете отвечать на сообщения
    Вы не можете редактировать свои сообщения
    Вы не можете удалять свои сообщения
    Вы не можете голосовать в опросах
    Вы не можете прикреплять файлы к сообщениям
    Вы можете скачивать файлы