Ссылка на приватное зеркало нашего сайта всего за 1$. Внимание количество ограничено!!!

2 сезон

iTunes

1 сезон

1

iTunes

iTunes

iTunes

1 сезон

RePack

30

ИГРА 18+

pack

ВАЖНО

!!Акция!!

Alien_RageХит недели

RePack

MK11
pack

Забери бонус

RePack

jed

!!Акция!!

Alien_Rage

RePack

fifa19

RePack

Assassins Creed: Odyssey

RePack

NEED FOR SPEED™ PAYBACK

4 сезон

9 сезон

Бесстыжие 9 сезон

Все сериалы

все сериалы на PB.wtf

RePack

FAR CRY 5
  

Забытый / Серии: 1-4 из 4 (Владимир Щегольков) [2011, Россия, драма, криминал, HDTVRip 720p от AVP Studio] pb.wtf

Забытый через торрент pb.wtf

Размер: 4.37 GB | Добавлен: 3 года 10 мес. назад | Торрент скачан:166 раз
Скачать  

19-12-2016 09:22 Забытый Скачать торрент  

Забытый
«Ниточки преступления уходят на самый верх, и над героями нависает смертельная опасность»

Страна: Россия
Производство: компания «Всемирные Русские Студии»

Жанр: драма, криминал
Год выпуска: 1956
Продолжительность: 4 серии ~ по 51-52 минуты

Перевод: не требуется
Субтитры: нет
Оригинальная аудиодорожка: русский

Режиссер: Владимир Щегольков

В ролях:
Евгений Цыганов, Мария Машкова, Александр Ильин (младший), Алексей Серебряков, Андрей Мерзликин, Дарья Мороз, Дмитрий Муляр, Ивар Калныньш, Арнис Лицитис, Гундарс Аболиньш, Андрис Кейшс, Вилис Даудзиньш, Анете Саулите, Катрина Шмате, Мария Берзиня, Янис Паукштелло, Анда Зайце, Лиена Шмуксте, Индра Бурковска, Берта Вилипсоне, Улдис Анже, Айварс Силиньш...
Полный список актёров

Описание:
По по повести Анатолия Азольского "Облдрамтеатр".
1949 год. Бывший фронтовик и бывший следователь Сергей Гастев отходит от розыскной деятельности, столкнувшись с неожиданной для себя проблемой чиновничьей взаимовыручки. Попытки восстановить справедливость едва не заканчиваются для него самого тюремной решеткой. Гастев решает ограничить свою деятельность преподаванием римского права в университете небольшого областного городка. В личной жизни Сергея тоже все не просто: роман с городским комсомольским лидером Людмилой Мишиной (Мария Машкова) приходится тщательно скрывать...
Внезапно город потрясает ряд дерзких преступлений. На усиление в срочно созванный штаб по борьбе с бандитизмом решено привлечь и Гастева, как очень талантливого в прошлом сыщика. В помощь Сергею дают молоденького сельского участкового Илью Ропню (Александр Ильин). Однако пытаясь раскрыть одно преступление, герои невольно нападают на след другого - грандиозной финансовой аферы, связанной с 70-летием Сталина. Гастев начинает подозревать, что в афере замешана и его любимая женщина - Людмила Мишина. Чем больше погружается в дело Гастев, тем яснее становится, что ниточки преступления уходят на самый верх, и над героями нависает смертельная опасность…

Исходник: HDTV 1080i
Качество видео: HDTVRip 720p
Формат видео: MKV

Видео: 1280х540 (2,40:1), 25 fps, H264 ~ 2556 kbps avg, 0.148 bit/pixel
Аудио: 48 kHz, Dolby Digital AC3 5.1, 448 kbps

Раздача от:
Общее
Полное имя : Zabytyy.2011.HDTVRip720p_[New-team]_by_AVP_Studio\01.mkv
Формат : Matroska
Версия формата : Version 2
Размер файла : 1,08 Гбайт
Продолжительность : 51 м. 37 с.
Общий поток : 3004 Кбит/сек
Дата кодирования : UTC 2016-12-18 20:54:22
Программа кодирования : mkvmerge v6.1.0 ('Old Devil') built on Mar 4 2013 09:10:42
Библиотека кодирования : libebml v1.3.0 + libmatroska v1.4.0

Видео
Идентификатор : 1
Формат : AVC
Формат/Информация : Advanced Video Codec
Профиль формата : High@L4.1
Параметр CABAC формата : Да
Параметр ReFrames формата : 8 кадров
Идентификатор кодека : V_MPEG4/ISO/AVC
Продолжительность : 51 м. 37 с.
Битрейт : 2556 Кбит/сек
Ширина : 1280 пикселей
Высота : 540 пикселей
Соотношение сторон : 2,40:1
Режим частоты кадров : Постоянный
Частота кадров : 25,000 кадров/сек
Цветовое пространство : YUV
Субдискретизация насыщенности : 4:2:0
Битовая глубина : 8 бит
Тип развёртки : Прогрессивная
Бит/(Пиксели*Кадры) : 0.148
Размер потока : 922 Мбайт (83%)
Библиотека кодирования : x264 core 148 r2597 e86f3a1
Настройки программы : cabac=1 / ref=8 / deblock=1:-3:-3 / analyse=0x3:0x113 / me=umh / subme=10 / psy=1 / psy_rd=1.00:0.00 / mixed_ref=1 / me_range=32 / chroma_me=1 / trellis=2 / 8x8dct=1 / cqm=0 / deadzone=21,11 / fast_pskip=1 / chroma_qp_offset=-2 / threads=6 / lookahead_threads=1 / sliced_threads=0 / nr=0 / decimate=0 / interlaced=0 / bluray_compat=0 / constrained_intra=0 / bframes=8 / b_pyramid=2 / b_adapt=2 / b_bias=0 / direct=3 / weightb=1 / open_gop=0 / weightp=2 / keyint=250 / keyint_min=25 / scenecut=40 / intra_refresh=0 / rc_lookahead=40 / rc=2pass / mbtree=0 / bitrate=2556 / ratetol=1.0 / qcomp=0.60 / qpmin=0 / qpmax=69 / qpstep=4 / cplxblur=20.0 / qblur=0.5 / vbv_maxrate=50000 / vbv_bufsize=50000 / nal_hrd=none / filler=0 / ip_ratio=1.40 / pb_ratio=1.30 / aq=1:0.80
Default : Да
Forced : Нет

Аудио
Идентификатор : 2
Формат : AC-3
Формат/Информация : Audio Coding 3
Расширение режима : CM (complete main)
Параметр Endianness формата : Big
Идентификатор кодека : A_AC3
Продолжительность : 51 м. 37 с.
Вид битрейта : Постоянный
Битрейт : 448 Кбит/сек
Каналы : 6 каналов
Расположение каналов : Front: L C R, Side: L R, LFE
Частота : 48,0 КГц
Частота кадров : 31,250 кадров/сек (1536 spf)
Битовая глубина : 16 бит
Метод сжатия : С потерями
Размер потока : 165 Мбайт (15%)
Default : Да
Forced : Нет
pb.wtf



Скачать Забытый через торрент http://s017.radikal.ru/i412/1612/7b/beaae123b9c3.png Скачать фильм Забытый через торрент бесплантно в хорошем качестве Описание:По по повести Анатолия Азольского "Облдрамтеатр".1949 год. Бывший фронтовик и бывший следователь Сергей Гастев отходит от ... 5.5 10 2
Info! Золотая раздача, скачанное не засчитывается.
Торрент: Зарегистрирован [2016-12-19 09:22] · скачан: 166 раз
Статус: √ проверено
Размер: 4.37 GB
Как cкачать? Как скачать Забытый через торрент | qTorrent

% Раздел Тема Автор DL S | L
Наши сериалы [ 1.93 GB ] Забытая женщина / Серии: 1-4 из 4 [2017 SATRip-AVC] aleksan55 Скачать
1 | 0
Наши сериалы [ 2.35 GB ] Забытая женщина / Серия 1-4 из 4 / [2017 Мело SATRip] oleg8 Скачать
1 | 0
Наши сериалы [ 1.95 GB ] Колодец забытых желаний / Серии: 1-4 из 4 [2016 экранизация SATRip-AVC] aleksan55 Скачать
1 | 0
Наши сериалы [ 3.72 GB ] Забытый / Серии: 1-4 из 4 [2011 Россия HDTVRip-AVC от AVP Studio] AVP Studio Скачать
1 | 0
Наши сериалы [ 2.18 GB ] Забытый / Серии: 1-4 из 4 [2011 Россия HDTVRip от AVP Studio] AVP Studio Скачать
1 | 0
Наши сериалы [ 2.19 GB ] Забытый / / [2011 ьная Ретро- DVDRip] Оригинал wekotila Скачать
1 | 0

28-11-2019 20:33  

Отключить всю рекламу на сайте

20-12-2016 04:24 Забытый Скачать торрент  

Год выпуска 1956pb.wtf



    Дорогой пользователь! Огромная просьба, поблагодарите релизера, оцените раздачу и оставьте свои комментарий, если Вы скачали Забытый через торрент бесплатно! Внесите свою лепту в развитие PiratBit!
    Комментировать посты могут только пользователи прошедшие не сложную регистрацию
    Показать сообщения:    

    Забытый через торрент
    Скачать бесплатно Забытый
    Забытый скачать торрент
    Забытый смотреть онлайн
    Cкачать фильм Забытый бесплатно
    Забытый скачать торрент в хорошем качестве
    Забытый смотреть онлайн бесплатно в хорошем качестве


    Вы не можете начинать темы
    Вы не можете отвечать на сообщения
    Вы не можете редактировать свои сообщения
    Вы не можете удалять свои сообщения
    Вы не можете голосовать в опросах
    Вы не можете прикреплять файлы к сообщениям
    Вы можете скачивать файлы