Ссылка на приватное зеркало нашего сайта всего за 1$. Внимание количество ограничено!!!

2 сезон

iTunes

1 сезон

1

iTunes

iTunes

iTunes

1 сезон

RePack

30

ИГРА 18+

pack

ВАЖНО

!!Акция!!

Alien_RageХит недели

RePack

MK11
pack

Забери бонус

RePack

jed

!!Акция!!

Alien_Rage

RePack

fifa19

RePack

Assassins Creed: Odyssey

RePack

NEED FOR SPEED™ PAYBACK

4 сезон

9 сезон

Бесстыжие 9 сезон

Все сериалы

все сериалы на PB.wtf

RePack

FAR CRY 5
  

Пьяная фирма / Сезон 1 / Серия 1-4 из 4 (Григорий Константинопольский) [2016 , Россия, комедия, SATRip] pb.wtf

Пьяная фирма через торрент pb.wtf

Размер: 1.73 GB | Добавлен: 3 года 10 мес. назад | Торрент скачан:491 раз
Скачать  

19-12-2016 13:31 Пьяная фирма Скачать торрент  

Пьяная фирма


  • Год выпуска: 2016

  • Страна: Россия
  • Жанр: комедия
  • Продолжительность: 00:49:10
  • Перевод: Не требуется [Русский]

  • Режиссер: Григорий Константинопольский
  • В ролях:

    Михаил Ефремов (Григорий Штучный), Елизавета Боярская (Анастасия Григорьевна), Иван Макаревич (Илья), Анна Михалкова (Сабина), Марат Башаров (Гнилорыбов), Виктория Исакова (Мальвина), Юрий Колокольников (Славик), Ирина Апексимова (мама Ильи), Александр Петров (Григорий Штучный в молодости), Евгений Цыганов (ревнивый кавказец), Виктория Толстоганова (Галина Юрьевна), Ингеборга Дапкунайте (Майкл Джексон)


  • Похмельный сериал про гениального врача, который выводит богатых людей из запоя одному только ему известным методом.
  • Рейтинг:



  • Качество: SATRip
  • Формат: :AVI
  • Видео кодек: XviD
  • Аудио кодек: MP3
  • Видео: 720x304 (2.35:1), 1105 kbps, 25 fps, 0,202 bpp
  • Аудио: 2.0 / 48 kHz / 192 kbps /

    Внимание! Раздача ведётся путём добавления новых серий; при каждом добавлении создаётся новый торрент. Чтобы начать докачку новой серии, пользователям необходимо сделать следующее:
    (1) остановить скачивание,
    (2) удалить старый торрент у себя из клиента (старые серии удалять не надо),
    (3) скачать новый торрент и запустить его у себя в клиенте вместо старого, при этом указать клиенту путь в старую папку куда и должно происходить скачивание новых серий.
    Ваш клиент при этом должен произвести хеширование (проверку) старой папки (если не производит сам - помогите ему сделать это), и будет докачивать только те серии которых у вас ещё нет. Старые серии при этом не удаляются, а продолжают раздаваться!
    Eсли вы уже удалили старые серии, то предотвратить повторную закачку старых серий можно, отжав галочку в соответствующих местах при запуске нового торрента. По возможности, желательно не удалять старые серии как можно дольше чтобы релизёр не столько продолжал раздавать старые серии, а смог сконцентрироваться на новых.

    General
    Complete name : H:\Пьяная фирма 2016 SATRip\Серия 1.avi
    Format : AVI
    Format/Info : Audio Video Interleave
    File size : 461 MiB
    Duration : 49 min
    Overall bit rate : 1 311 kb/s
    Writing application : VirtualDubMod 1.5.10.3 (build 2550/release)
    Writing library : VirtualDubMod build 2550/release

    Video
    ID : 0
    Format : MPEG-4 Visual
    Format profile : Advanced Simple@L5
    Format settings, BVOP : 1
    Format settings, QPel : No
    Format settings, GMC : No warppoints
    Format settings, Matrix : Default (H.263)
    Codec ID : XVID
    Codec ID/Hint : XviD
    Duration : 49 min
    Bit rate : 1 106 kb/s
    Width : 720 pixels
    Height : 304 pixels
    Display aspect ratio : 2.35:1
    Frame rate : 25.000 FPS
    Color space : YUV
    Chroma subsampling : 4:2:0
    Bit depth : 8 bits
    Scan type : Progressive
    Compression mode : Lossy
    Bits/(Pixel*Frame) : 0.202
    Stream size : 389 MiB (84%)
    Writing library : XviD 67

    Audio
    ID : 1
    Format : MPEG Audio
    Format version : Version 1
    Format profile : Layer 3
    Mode : Joint stereo
    Mode extension : MS Stereo
    Codec ID : 55
    Codec ID/Hint : MP3
    Duration : 49 min
    Bit rate mode : Constant
    Bit rate : 192 kb/s
    Channel(s) : 2 channels
    Sampling rate : 48.0 kHz
    Compression mode : Lossy
    Stream size : 67.5 MiB (15%)
    Alignment : Aligned on interleaves
    Interleave, duration : 24 ms (0.60 video frame)
    Interleave, preload duration : 504 ms
    Writing library : LAME3.99.5

    Скриншоты:
    скриншот   скриншот   скриншот   скриншот   скриншот   скриншот   скриншот  
    скриншот  

    Раздача ведётся путём добавления новых серий. Добавлена 4 серия (22.12.2016).Просьба перекачать торрент файл.

    pb.wtf



  • Скачать Пьяная фирма через торрент http://i86.fastpic.ru/big/2016/1219/a1/af4e0391d713b249606d96065a686fa1.jpg Скачать фильм Пьяная фирма через торрент бесплантно в хорошем качестве qw.png Похмельный сериал про гениального врача, который выводит богатых людей из запоя одному только ему известным ... 9.3 10 23
    Info! Золотая раздача, скачанное не засчитывается.
    Торрент: Зарегистрирован [2016-12-22 13:18] · скачан: 491 раз
    Статус: √ проверено
    Размер: 1.73 GB
    Как cкачать? Как скачать Пьяная фирма через торрент | qTorrent



    Последний раз редактировалось: GEKADOL (2016-12-22 13:21), всего редактировалось 4 раз(а)

    28-11-2019 20:33  

    Отключить всю рекламу на сайте

    20-12-2016 17:07 Пьяная фирма Скачать торрент  

    спасибо за раздачу, но сериал хрень полнаяpb.wtf



    20-12-2016 23:52 Пьяная фирма Скачать торрент  

    B@ROH писал(а):

    спасибо за раздачу, но сериал хрень полная

    pb.wtf



    21-12-2016 08:36 Пьяная фирма Скачать торрент  

    B@ROH писал(а):

    спасибо за раздачу, но сериал хрень полная

    полностью согласен , это для дебилоидов сериал ..pb.wtf



    21-12-2016 08:58 Пьяная фирма Скачать торрент  

    СаняБелый писал(а):

    B@ROH писал(а):

    спасибо за раздачу, но сериал хрень полная

    полностью согласен , это для дебилоидов сериал ..

    ты же посмотрел pb.wtf



    21-12-2016 14:06 Пьяная фирма Скачать торрент  

    СаняБелый писал(а):

    B@ROH писал(а):

    спасибо за раздачу, но сериал хрень полная

    полностью согласен , это для дебилоидов сериал ..

    pb.wtf



    22-12-2016 11:29 Пьяная фирма Скачать торрент  

    А мне понравилось, не факт еще кто дибилоидpb.wtf



    22-12-2016 15:19 Пьяная фирма Скачать торрент  

    СаняБелый писал(а):

    B@ROH писал(а):

    спасибо за раздачу, но сериал хрень полная

    полностью согласен , это для дебилоидов сериал ..

    А что на ТНТ есть другие сериалы?pb.wtf



    23-12-2016 16:11 Пьяная фирма Скачать торрент  

    Жесть какая) Не смотрите.pb.wtf



    24-12-2016 07:04 Пьяная фирма Скачать торрент  

    Нормальный сериальчик. Это то же развлекуха (комедия, выдумка), а вы предъявляете какие-то требования как к оскаровским фильмам.pb.wtf



    28-12-2016 18:12 Пьяная фирма Скачать торрент  

    GEKADOL когда продолжение не подскажешь?pb.wtf



      Дорогой пользователь! Огромная просьба, поблагодарите релизера, оцените раздачу и оставьте свои комментарий, если Вы скачали Пьяная фирма через торрент бесплатно! Внесите свою лепту в развитие PiratBit!
      Комментировать посты могут только пользователи прошедшие не сложную регистрацию
      Показать сообщения:    

      Пьяная фирма через торрент
      Скачать бесплатно Пьяная фирма
      Пьяная фирма скачать торрент
      Пьяная фирма смотреть онлайн
      Cкачать фильм Пьяная фирма бесплатно
      Пьяная фирма скачать торрент в хорошем качестве
      Пьяная фирма смотреть онлайн бесплатно в хорошем качестве


      Вы не можете начинать темы
      Вы не можете отвечать на сообщения
      Вы не можете редактировать свои сообщения
      Вы не можете удалять свои сообщения
      Вы не можете голосовать в опросах
      Вы не можете прикреплять файлы к сообщениям
      Вы можете скачивать файлы