Ссылка на приватное зеркало нашего сайта всего за 1$. Внимание количество ограничено!!!

2 сезон

iTunes

1 сезон

1

iTunes

iTunes

iTunes

1 сезон

RePack

30

ИГРА 18+

pack

ВАЖНО

!!Акция!!

Alien_RageХит недели

RePack

MK11
pack

Забери бонус

RePack

jed

!!Акция!!

Alien_Rage

RePack

fifa19

RePack

Assassins Creed: Odyssey

RePack

NEED FOR SPEED™ PAYBACK

4 сезон

9 сезон

Бесстыжие 9 сезон

Все сериалы

все сериалы на PB.wtf

RePack

FAR CRY 5
  

Призрак рая / Phantom of the Paradise (Брайан Де Пальма) [1974, фэнтези, триллер, драма, комедия, музыка, BDRip 1080p by msltel] MVO pb.wtf

Призрак рая через торрент pb.wtf

Размер: 11.24 GB | Добавлен: 3 года 10 мес. назад | Торрент скачан:6 раз
Скачать  

20-12-2016 07:41 Призрак рая Скачать торрент  

Название: Призрак рая
Оригинальное название: Phantom of the Paradise
Год выпуска: 1974
Страна: США
Жанр: фэнтези, триллер, драма, комедия, музыка
Продолжительность: 01:31:36
Перевод: профессиональный многоголосый

Режиссёр: Брайан Де Пальма

В ролях: Пол Уильямс, Уильям Финли, Джессика Харпер, Джордж Меммоли, Геррит Грэм, Арчи Хан, Питер Элблинг, Колин Камерон, Дэвид Гарлэнд

Описание: Выступление неизвестного талантливого композитора Уинслоу Лича случайно увидел Сван, глава мега-мэйджора DEATH Records, и решил использовать его песни для готовящегося мюзикла "Рай". Взяв его песни и пообещав "вскоре связаться", Сван "кинул" Лича, и тот угодил в тюрьму. Тем временем, Сван превращает музыку Уинслоу в рок-оперу. Личу удаётся вырваться из тюрьмы, но, при попытке разгромить цех по производству пластинок, где штамповали записи его мюзикла, он случайно попадает головой в работающий формовочный пресс. Теперь Уинслоу становится "Призраком" и пытается вырвать из когтей Свана молодую певицу Феникс, в которую безнадёжно влюбился. Однако Сван, продавший душу дьяволу в обмен на вечную молодость и успех, так просто сдаваться не собирается...



Качество: BDRip 1080p
Формат: MKV
Видео: MPEG-4 AVC, 15.9 Mбит/с, 1920x1036, 23,976 кадра/с
Аудио 1: русский, AC3, 192 kbps, 2 ch, 48 kHz [профессиональный многоголосый]
Аудио 2: английский, DTS, 1509 kbps, 4 ch, 48 kHz [оригинал]
Субтитры 1: русские
Субтитры 2: английские
Имеются неименованные главы/чаптеры.
Общее
Уникальный идентификатор : 181601470517742055669611492782657834399 (0x889F2BC6C0E4782E919A2F0E1FBD0D9F)
Полное имя : D:\Video\Призрак рая.1974 BDRip.1080p by msltel.mkv
Формат : Matroska
Версия формата : Version 4 / Version 2
Размер файла : 11,2 Гбайт
Продолжительность : 1 ч. 31 м.
Общий поток : 17,6 Мбит/сек
Название фильма : Rip by msltel
Дата кодирования : UTC 2016-12-19 14:29:26
Программа кодирования : mkvmerge v8.2.0 ('World of Adventure') 64bit
Библиотека кодирования : libebml v1.3.1 + libmatroska v1.4.2

Видео
Идентификатор : 1
Формат : AVC
Формат/Информация : Advanced Video Codec
Профиль формата : High@L4.1
Параметр CABAC формата : Да
Параметр ReFrames формата : 4 кадра
Идентификатор кодека : V_MPEG4/ISO/AVC
Продолжительность : 1 ч. 31 м.
Битрейт : 15,9 Мбит/сек
Ширина : 1920 пикселей
Высота : 1036 пикселей
Соотношение сторон : 1,85:1
Режим частоты кадров : Постоянный
Частота кадров : 23,976 (24000/1001) кадра/сек
Цветовое пространство : YUV
Субдискретизация насыщенности : 4:2:0
Битовая глубина : 8 бит
Тип развёртки : Прогрессивная
Бит/(Пиксели*Кадры) : 0.333
Размер потока : 10,2 Гбайт (90%)
Библиотека кодирования : x264 core 146 r2538 121396c
Настройки программы : cabac=1 / ref=4 / deblock=1:-3:-3 / analyse=0x3:0x113 / me=umh / subme=9 / psy=1 / psy_rd=1.00:0.15 / mixed_ref=1 / me_range=32 / chroma_me=1 / trellis=1 / 8x8dct=1 / cqm=0 / deadzone=21,11 / fast_pskip=0 / chroma_qp_offset=-3 / threads=6 / lookahead_threads=1 / sliced_threads=0 / nr=0 / decimate=1 / interlaced=0 / bluray_compat=0 / constrained_intra=0 / bframes=9 / b_pyramid=2 / b_adapt=2 / b_bias=0 / direct=1 / weightb=0 / open_gop=0 / weightp=2 / keyint=230 / keyint_min=23 / scenecut=40 / intra_refresh=0 / rc_lookahead=40 / rc=crf / mbtree=0 / crf=19.2 / qcomp=0.60 / qpmin=0 / qpmax=69 / qpstep=4 / vbv_maxrate=50000 / vbv_bufsize=62500 / crf_max=0.0 / nal_hrd=none / filler=0 / ip_ratio=1.40 / pb_ratio=1.30 / aq=1:1.00
Язык : English
Default : Да
Forced : Нет

Аудио #1
Идентификатор : 2
Формат : AC-3
Формат/Информация : Audio Coding 3
Расширение режима : CM (complete main)
Параметр Endianness формата : Big
Идентификатор кодека : A_AC3
Продолжительность : 1 ч. 31 м.
Вид битрейта : Постоянный
Битрейт : 192 Кбит/сек
Каналы : 2 канала
Расположение каналов : Front: L R
Частота : 48,0 КГц
Частота кадров : 31,250 кадров/сек (1536 spf)
Метод сжатия : С потерями
Размер потока : 126 Мбайт (1%)
Заголовок : MVO
Язык : Russian
Default : Да
Forced : Нет

Аудио #2
Идентификатор : 3
Формат : DTS
Формат/Информация : Digital Theater Systems
Режим : 16
Параметр Endianness формата : Big
Идентификатор кодека : A_DTS
Продолжительность : 1 ч. 31 м.
Вид битрейта : Постоянный
Битрейт : 1509 Кбит/сек
Каналы : 4 канала
Расположение каналов : Front: L C R, Back: C
Частота : 48,0 КГц
Частота кадров : 93,750 кадра/сек (512 spf)
Битовая глубина : 24 бит
Метод сжатия : С потерями
Размер потока : 989 Мбайт (9%)
Заголовок : original
Язык : English
Default : Нет
Forced : Нет

Текст #1
Идентификатор : 4
Формат : UTF-8
Идентификатор кодека : S_TEXT/UTF8
Идентификатор кодека/Информация : UTF-8 Plain Text
Продолжительность : 1 ч. 26 м.
Битрейт : 46 бит/сек
Count of elements : 418
Размер потока : 29,6 Кбайт (0%)
Заголовок : русские
Язык : Russian
Default : Нет
Forced : Нет

Текст #2
Идентификатор : 5
Формат : UTF-8
Идентификатор кодека : S_TEXT/UTF8
Идентификатор кодека/Информация : UTF-8 Plain Text
Продолжительность : 1 ч. 26 м.
Битрейт : 39 бит/сек
Count of elements : 509
Размер потока : 24,7 Кбайт (0%)
Заголовок : английские
Язык : English
Default : Нет
Forced : Нет

Меню
00:00:00.000 : :Chapter 01
00:05:11.019 : :Chapter 02
00:13:37.775 : :Chapter 03
00:22:24.384 : :Chapter 04
00:30:02.884 : :Chapter 05
00:36:06.914 : :Chapter 06
00:45:23.971 : :Chapter 07
00:55:21.026 : :Chapter 08
01:02:51.976 : :Chapter 09
01:10:14.627 : :Chapter 10
01:15:04.500 : :Chapter 11
01:21:07.320 : :Chapter 12
01:31:35.907 : :Chapter 13
pb.wtf



Скачать Призрак рая через торрент http://s12.radikal.ru/i185/1612/a8/2bf02c84b9f6.jpg Скачать фильм Призрак рая через торрент бесплантно в хорошем качестве Описание: Выступление неизвестного талантливого композитора Уинслоу Лича случайно увидел Сван, глава мега-мэйджора DEATH Records, и решил ... 5.5 10 2
Info! Золотая раздача, скачанное не засчитывается.
Торрент: Зарегистрирован [2016-12-20 07:41] · скачан: 6 раз
Статус: √ проверено
Размер: 11.24 GB
Как cкачать? Как скачать Призрак рая через торрент | qTorrent

% Раздел Тема Автор DL S | L
Классика зарубежного кино [ 4 GB ] Призрак рая / Phantom of the Paradise [1974 музыка BDRip 720p by msltel] MVO msltel Скачать
1 | 0

28-11-2019 20:33  

Отключить всю рекламу на сайте

    Дорогой пользователь! Огромная просьба, поблагодарите релизера, оцените раздачу и оставьте свои комментарий, если Вы скачали Призрак рая через торрент бесплатно! Внесите свою лепту в развитие PiratBit!
    Комментировать посты могут только пользователи прошедшие не сложную регистрацию
    Показать сообщения:    

    Призрак рая через торрент
    Скачать бесплатно Призрак рая
    Призрак рая скачать торрент
    Призрак рая смотреть онлайн
    Cкачать фильм Призрак рая бесплатно
    Призрак рая скачать торрент в хорошем качестве
    Призрак рая смотреть онлайн бесплатно в хорошем качестве


    Вы не можете начинать темы
    Вы не можете отвечать на сообщения
    Вы не можете редактировать свои сообщения
    Вы не можете удалять свои сообщения
    Вы не можете голосовать в опросах
    Вы не можете прикреплять файлы к сообщениям
    Вы можете скачивать файлы