Мега распродажа FORZA HORIZON 4 ULTIMATE+ВСЕ DLC+ОНЛАЙН всего за 499р. 349 руб. (супер цена). Внимание количество ограничено!!!

iTunes

1+1

iTunes

мы

iTunes

1

1 сезон

Чернобыль

1 сезон

Ральф против интернета

Лицензия

ПШазам

8 сезон

Игра престолов

Лицензия

30
pack

ВАЖНО

!!Акция!!

Alien_RageХит недели

RePack

Resident Evil 21

ИГРА 18+

pack

RePack

Metro:Exodus

!!Акция!!

Alien_Rage

RePack

fifa19

RePack

Assassins Creed: Odyssey

RePack

NEED FOR SPEED™ PAYBACK

3 сезон

9 сезон

Бесстыжие 9 сезон

Все сериалы

все сериалы на PB.wtf

RePack

FAR CRY 5
Ребята, катастрофически не хватает 2730р. для оплаты серверов за ИЮНЬ (всвязи с блокировками трафик упал в 3 раза), 1-2р., выручайте.
  

Закон Мерфи / Murphy's Law (Джей Ли Томпсон) [1986 г., боевик, триллер, драма, криминал, детектив, BDRip] MVO, 2xAVO pb.wtf

Закон Мерфи через торрент pb.wtf

Размер: 1.45 GB | Добавлен: 2 года 6 мес. назад | Торрент скачан:11 раз
Скачать  

20-12-2016 18:59 Закон Мерфи Скачать торрент  

Закон Мерфи / Murphy's Law
Год выпуска: 1986
Страна: США
Жанр: боевик, триллер, драма, криминал, детектив
Продолжительность: 01:40:30
Перевод: Профессиональный многоголосый, авторский

Режиссер: Джей Ли Томпсон

rating

В ролях: Чарльз Бронсон, Кэтлин Уилхойт, Кэрри Снодгресс, Роберт Ф. Лайонс, Ричард Романус, Энджел Томпкинс Билл Хендерсон, Джеймс Луизи, Клиффорд А. Пеллоу, Джанет МакЛахлан

Описание: Прославленный и нестареющий Чарльз Бронсон играет Джека Мерфи, детектива из Лос-Анжелеса, «крутого парня», немногословного, сурового и решительного. И вдруг он становится мишенью… женщины-убийцы, поклявшейся уничтожить его и действующей, как настоящий профессионал.Вскоре выясняется, что не только эта психопатка желает Мерфи смерти: на хвост ему села гангстерская группировка… как всегда у Ли Томпсона, все очень динамично, много стрельбы, драк, погонь, крови. Выполнено все это на высоком качественном уровне, захватывает и не отпускает до самого конца.

Качество: BDRip (Murphys.Law.1986.BDRemux)
Формат: AVI
Видео кодек: XviD
Аудио кодек: AC3
Видео: XviD, 1471 Кбит/с, 720x384, 23.976 кадр/с
Аудио#1: AC3, 2 ch, 192 Кбит/с, 48 kHz | Профессиональный многоголосый (Paramount Channel)
Аудио#2: AC3, 2 ch, 192 Кбит/с, 48 kHz | Aвторский (Юрий Живов)
Аудио#3: AC3, 2 ch, 192 Кбит/с, 48 kHz | Aвторский (Леонид Володарский)
Релиз от: Koenig
Общее
Полное имя : Murphy's.Law.1986.BDRip.avi
Формат : AVI
Формат/Информация : Audio Video Interleave
Размер файла : 1,45 Гбайт
Продолжительность : 1 ч. 40 м.
Общий поток : 2066 Кбит/сек
Программа кодирования : VirtualDubMod 1.5.10.2 (build 2540/release)
Библиотека кодирования : VirtualDubMod build 2540/release

Видео
Идентификатор : 0
Формат : MPEG-4 Visual
Профиль формата : Advanced Simple@L5
Параметр BVOP формата : 1
Параметр QPel формата : Нет
Параметр GMC формата : Без точки перехода
Параметр матрицы формата : Выборочная
Идентификатор кодека : XVID
Идентификатор кодека/Подсказка : XviD
Продолжительность : 1 ч. 40 м.
Битрейт : 1471 Кбит/сек
Ширина : 720 пикселей
Высота : 384 пикселя
Соотношение сторон : 1,85:1
Частота кадров : 23,976 (24000/1001) кадра/сек
Частота кадров в оригинале : 23,976 (23976/1000) кадра/сек
Цветовое пространство : YUV
Субдискретизация насыщенности : 4:2:0
Битовая глубина : 8 бит
Тип развёртки : Прогрессивная
Метод сжатия : С потерями
Бит/(Пиксели*Кадры) : 0.222
Размер потока : 1,03 Гбайт (71%)
Библиотека кодирования : XviD 73

Аудио #1
Идентификатор : 1
Формат : AC-3
Формат/Информация : Audio Coding 3
Расширение режима : CM (complete main)
Параметр Endianness формата : Big
Идентификатор кодека : 2000
Продолжительность : 1 ч. 40 м.
Вид битрейта : Постоянный
Битрейт : 192 Кбит/сек
Каналы : 2 канала
Расположение каналов : Front: L R
Частота : 48,0 КГц
Частота кадров : 31,250 кадров/сек (1536 spf)
Битовая глубина : 16 бит
Метод сжатия : С потерями
Размер потока : 138 Мбайт (9%)
Выравнивание : Разделение по промежуткам
Продолжительность промежутка : 42 мс. (1,00 видеокадр)
Время предзагрузки промежутка : 500 мс.

Аудио #2
Идентификатор : 2
Формат : AC-3
Формат/Информация : Audio Coding 3
Расширение режима : CM (complete main)
Параметр Endianness формата : Big
Идентификатор кодека : 2000
Продолжительность : 1 ч. 40 м.
Вид битрейта : Постоянный
Битрейт : 192 Кбит/сек
Каналы : 2 канала
Расположение каналов : Front: L R
Частота : 48,0 КГц
Частота кадров : 31,250 кадров/сек (1536 spf)
Битовая глубина : 16 бит
Метод сжатия : С потерями
Размер потока : 138 Мбайт (9%)
Выравнивание : Разделение по промежуткам
Продолжительность промежутка : 42 мс. (1,00 видеокадр)
Время предзагрузки промежутка : 500 мс.

Аудио #3
Идентификатор : 3
Формат : AC-3
Формат/Информация : Audio Coding 3
Расширение режима : CM (complete main)
Параметр Endianness формата : Big
Идентификатор кодека : 2000
Продолжительность : 1 ч. 40 м.
Вид битрейта : Постоянный
Битрейт : 192 Кбит/сек
Каналы : 2 канала
Расположение каналов : Front: L R
Частота : 48,0 КГц
Частота кадров : 31,250 кадров/сек (1536 spf)
Битовая глубина : 16 бит
Метод сжатия : С потерями
Размер потока : 138 Мбайт (9%)
Выравнивание : Разделение по промежуткам
Продолжительность промежутка : 42 мс. (1,00 видеокадр)
Время предзагрузки промежутка : 500 мс.

pb.wtf



Скачать Закон Мерфи через торрент http://pic1.kartinco.top/images/11/t948y.jpg Скачать фильм Закон Мерфи через торрент бесплантно в хорошем качестве Описание: Прославленный и нестареющий Чарльз Бронсон играет Джека Мерфи, детектива из Лос-Анжелеса, «крутого парня», немногословного, ... 10 10 1
Info! Золотая раздача, скачанное не засчитывается.
Торрент: Зарегистрирован [2016-12-20 18:59] · скачан: 11 раз
Статус: √ проверено
Размер: 1.45 GB
Как cкачать? Как скачать Закон Мерфи через торрент | qTorrent


>> Регистрируемся здесь <<






Отзывы и комментарии о схеме читаем и пишем здесь: ---> Отзывы и комментарии о схеме

Новые благодарочки в телеграм довольных пользователей:
скриншот   скриншот   скриншот   скриншот   скриншот
    Дорогой пользователь! Огромная просьба, поблагодарите релизера, оцените раздачу и оставьте свои комментарий, если Вы скачали Закон Мерфи через торрент бесплатно! Внесите свою лепту в развитие PiratBit!
    Комментировать посты могут только пользователи прошедшие не сложную регистрацию
    Показать сообщения:    

    Закон Мерфи через торрент
    Скачать бесплатно Закон Мерфи
    Закон Мерфи скачать торрент
    Закон Мерфи смотреть онлайн
    Cкачать фильм Закон Мерфи бесплатно
    Закон Мерфи скачать торрент в хорошем качестве
    Закон Мерфи смотреть онлайн бесплатно в хорошем качестве


    Вы не можете начинать темы
    Вы не можете отвечать на сообщения
    Вы не можете редактировать свои сообщения
    Вы не можете удалять свои сообщения
    Вы не можете голосовать в опросах
    Вы не можете прикреплять файлы к сообщениям
    Вы можете скачивать файлы