Всегда рабочее зеркало просто перед .vidak.icu напиши любое слово или цифру, Пример http://si0.vidak.icu

>

7.4

iTunes

7.4

2 сезон

9.4

1 сезон

1

7.4

2 сезон

7.2

iTunes

6.0

MVO

13

6.1

iTunes

8.3

Пиратка

30

ULTIMATE

pack

9.9

Лицензия

ВАЖНО

ИГРА 18+

pack

7.3

RePack

MK11

7.7

RePack

jed

7.8

RePack

fifa19

8.5

RePack

RDR2

RePack

NEED FOR SPEED™ PAYBACK

1 сезон

9 сезон

Бесстыжие 9 сезон

Все сериалы

все сериалы на PB.wtf

RePack

FAR CRY 5

Anonymous, доброй ночи, мы катастрофически не успеваем собрать деньги на оплату серверов, помогите нам пожалуйста 5,10,15р., для нас важна любая помощь . В качестве благодарности мы отключим Вам всю рекламу на сайте (укажите свой ник в строку Ваше имя)!

×
  
Magnet ссылка

Мы должны выбраться из этого места / Bad Turn Worse (Саймон Хоукинс, Зик Хоукинс) [2013, триллер, драма, криминал, HDRip] AVO [М.Чадов] pb.wtf

Мы должны выбраться из этого места через торрент pb.wtf

Размер: 1.46 GB | Добавлен: 5 лет назад | Торрент скачан:16 раз
Смотреть онлайн Мы должны выбраться из этого места | Скачать    Ребята, помогите собрать деньги на оплату серверов!!!

21-12-2016 07:01 Мы должны выбраться из этого места Скачать торрент  

Мы должны выбраться из этого места / Bad Turn Worse
Год выпуска: 2013
Страна: США
Жанр: триллер, драма, криминал
Продолжительность: 01:28:35
Перевод: Авторский (одноголосый) [М.Чадов]
Субтитры: отсутствуют

Режиссер: Саймон Хоукинс, Зик Хоукинс

rating

В ролях:

Маккензи Дэвис, Логан Хаффман, Джереми Аллен Уайт, Уильям Дивэйн, Джон Грайз, Марк Пеллегрино, Эразма Мартинес, Эшли Адамс, Келли Кинстли Кемпбелл, Ти Адамс

Описание:

Трое техасских подростков надеются вырваться из непросветной тоски жизнь в убогом городке, но оказываются втянуты в разборки организованной преступности, когда один из них украл деньги не у того человека.

Качество: HDRip
Формат: AVI
Видео кодек: XviD
Аудио кодек: AC3

Видео: 720x304 (2.37:1), 25 fps, XviD build 73 ~1966 kbps avg, 0.36 bit/pixel
Аудио#1: 48 kHz, AC3 Dolby Digital, 3/2 (L,C,R,l,r) + LFE ch, ~384 kbps


Формат : AVI
Формат/Информация : Audio Video Interleave
Размер файла : 1,46 Гбайт
Продолжительность : 1 ч. 28 м.
Общий поток : 2360 Кбит/сек
Программа кодирования : VirtualDubModRus 1.5.10.2 (build 2542/release)
Библиотека кодирования : VirtualDubMod build 2542/release

Видео
Идентификатор : 0
Формат : MPEG-4 Visual
Профиль формата : Advanced Simple@L5
Параметр BVOP формата : 1
Параметр QPel формата : Нет
Параметр GMC формата : Без точки перехода
Параметр матрицы формата : Выборочная
Идентификатор кодека : XVID
Идентификатор кодека/Подсказка : XviD
Продолжительность : 1 ч. 28 м.
Битрейт : 1966 Кбит/сек
Ширина : 720 пикселей
Высота : 304 пикселя
Соотношение сторон : 2,35:1
Частота кадров : 25,000 кадров/сек
Цветовое пространство : YUV
Субдискретизация насыщенности : 4:2:0
Битовая глубина : 8 бит
Тип развёртки : Прогрессивная
Метод сжатия : С потерями
Бит/(Пиксели*Кадры) : 0.359
Размер потока : 1,22 Гбайт (83%)
Библиотека кодирования : XviD 73

Аудио
Идентификатор : 1
Формат : AC-3
Формат/Информация : Audio Coding 3
Расширение режима : CM (complete main)
Параметр Endianness формата : Big
Идентификатор кодека : 2000
Продолжительность : 1 ч. 28 м.
Вид битрейта : Постоянный
Битрейт : 384 Кбит/сек
Каналы : 6 каналов
Расположение каналов : Front: L C R, Side: L R, LFE
Частота : 48,0 КГц
Частота кадров : 31,250 кадров/сек (1536 spf)
Битовая глубина : 16 бит
Метод сжатия : С потерями
Размер потока : 243 Мбайт (16%)
Выравнивание : Разделение по промежуткам
Продолжительность промежутка : 40 мс. (1,00 видеокадр)
Время предзагрузки промежутка : 500 мс.
скриншот   скриншот   скриншот   скриншот  
pb.wtf



Скачать Мы должны выбраться из этого места через торрент https://pic1.kartinco.top/images/11/ycmxj.jpg Скачать, смотреть онлайн Мы должны выбраться из этого места бесплантно в хорошем качестве Описание: Трое техасских подростков надеются вырваться из непросветной тоски жизнь в убогом городке, но оказываются втянуты в разборки ... 10 10 2
Торрент: Зарегистрирован [2016-12-21 07:01] · скачан: 16 раз
Статус: √ проверено
Размер: 1.46 GB
Как cкачать? Как скачать Мы должны выбраться из этого места через торрент | UTorrent

% Раздел Тема Автор DL S | L
Фильмы 2013 (Звук TS, Cam, VO, DVO) [ 1.36 GB ] Мы должны выбраться из этого места / Bad Turn Worse [2013 HDRip Любительский [datynet] GEKADOL Скачать
1 | 0

28-11-2019 20:33  

Отключить всю рекламу на сайте

    Дорогой пользователь! Огромная просьба, поблагодарите релизера, оцените раздачу и оставьте свои комментарий, если Вы скачали Мы должны выбраться из этого места через торрент бесплатно!
    Комментировать посты могут только пользователи прошедшие не сложную регистрацию
    Показать сообщения:    

    Мы должны выбраться из этого места через торрент
    Скачать бесплатно Мы должны выбраться из этого места
    Мы должны выбраться из этого места скачать торрент
    Мы должны выбраться из этого места смотреть онлайн
    Cкачать фильм Мы должны выбраться из этого места бесплатно
    Мы должны выбраться из этого места скачать торрент в хорошем качестве
    Мы должны выбраться из этого места смотреть онлайн бесплатно в хорошем качестве


    Вы не можете начинать темы
    Вы не можете отвечать на сообщения
    Вы не можете редактировать свои сообщения
    Вы не можете удалять свои сообщения
    Вы не можете голосовать в опросах
    Вы не можете прикреплять файлы к сообщениям
    Вы можете скачивать файлы