>

7.4

iTunes

7.4

2 сезон

9.4

1 сезон

1

7.4

2 сезон

7.2

iTunes

6.0

MVO

13

6.1

iTunes

8.3

Пиратка

30

ULTIMATE

pack

9.9

Лицензия

ВАЖНО

ИГРА 18+

pack

7.3

RePack

MK11

7.7

RePack

jed

7.8

RePack

fifa19

8.5

RePack

RDR2

RePack

NEED FOR SPEED™ PAYBACK

1 сезон

9 сезон

Бесстыжие 9 сезон

Все сериалы

все сериалы на PB.wtf

RePack

FAR CRY 5

Anonymous, доброй ночи, мы катастрофически не успеваем собрать деньги на оплату серверов, помогите нам пожалуйста 5,10,15р., для нас важна любая помощь . В качестве благодарности мы отключим Вам всю рекламу на сайте (укажите свой ник в строку Ваше имя)!

×
  
Magnet ссылка

Эрнест идет в тюрьму / Ernest Goes to Jail (Джон Р. Черри III) [1990 г., комедия, криминал, семейный, BDRip] AVO pb.wtf

Эрнест идет в тюрьму через торрент pb.wtf

Размер: 1.45 GB | Добавлен: 5 лет назад | Торрент скачан:17 раз
Смотреть онлайн Эрнест идет в тюрьму | Скачать    Ребята, помогите собрать деньги на оплату серверов!!!

21-12-2016 18:11 Эрнест идет в тюрьму Скачать торрент  

Эрнест идет в тюрьму / Ernest Goes to Jail
Год выпуска: 1990
Страна: США
Жанр: комедия, криминал, семейный
Продолжительность: 01:21:15
Перевод: Авторский (Володарский)

Режиссер: Джон Р. Черри III

rating

В ролях: Джим Варни, Гейлард Сартейн, Билл Бирдж, Барбара Тайсон, Бэрри Скотт, Рэндал «Текс» Кобб, Дэн Лигант, Чарльз Нэпьер, Джим Конрад, Джеки Уэлш

Описание: Непутевый Эрнест из-за коварного плана мафии попадает в тюрьму вместо его двойника — известного преступника. Его собираются посадить на электрический стул, но вместо смерти Эрнест получает волшебную силу, которая ему поможет в поимке настоящего преступника.

Качество: BDRip (Ernest Goes to Jail 1990 1080p BluRay AVC DD2.0 - TAPAS)
Формат: AVI
Видео кодек: XviD
Аудио кодек: AC3
Видео: XviD, 2157 Кбит/с, 720x400, 23.976 кадр/с
Аудио#1: AC3, 2 ch, 192 Кбит/с, 48 kHz | Русский
Аудио#2: АС3, 2 ch, 192 Кбит/с, 48 kHz | Английский
Релиз от: Koenig
Общее
Полное имя : Ernest.Goes.to.Jail.1990.BDRip.avi
Формат : AVI
Формат/Информация : Audio Video Interleave
Размер файла : 1,45 Гбайт
Продолжительность : 1 ч. 21 м.
Общий поток : 2555 Кбит/сек
Программа кодирования : VirtualDubMod 1.5.10.2 (build 2540/release)
Библиотека кодирования : VirtualDubMod build 2540/release

Видео
Идентификатор : 0
Формат : MPEG-4 Visual
Профиль формата : Advanced Simple@L5
Параметр BVOP формата : 1
Параметр QPel формата : Нет
Параметр GMC формата : Без точки перехода
Параметр матрицы формата : Выборочная
Идентификатор кодека : XVID
Идентификатор кодека/Подсказка : XviD
Продолжительность : 1 ч. 21 м.
Битрейт : 2157 Кбит/сек
Ширина : 720 пикселей
Высота : 400 пикселей
Соотношение сторон : 16:9
Частота кадров : 23,976 (24000/1001) кадра/сек
Частота кадров в оригинале : 23,976 (23976/1000) кадра/сек
Цветовое пространство : YUV
Субдискретизация насыщенности : 4:2:0
Битовая глубина : 8 бит
Тип развёртки : Прогрессивная
Метод сжатия : С потерями
Бит/(Пиксели*Кадры) : 0.312
Размер потока : 1,22 Гбайт (84%)
Библиотека кодирования : XviD 73

Аудио #1
Идентификатор : 1
Формат : AC-3
Формат/Информация : Audio Coding 3
Расширение режима : CM (complete main)
Параметр Endianness формата : Big
Идентификатор кодека : 2000
Продолжительность : 1 ч. 21 м.
Вид битрейта : Постоянный
Битрейт : 192 Кбит/сек
Каналы : 2 канала
Расположение каналов : Front: L R
Частота : 48,0 КГц
Частота кадров : 31,250 кадров/сек (1536 spf)
Битовая глубина : 16 бит
Метод сжатия : С потерями
Размер потока : 112 Мбайт (8%)
Выравнивание : Разделение по промежуткам
Продолжительность промежутка : 42 мс. (1,00 видеокадр)
Время предзагрузки промежутка : 500 мс.

Аудио #2
Идентификатор : 2
Формат : AC-3
Формат/Информация : Audio Coding 3
Расширение режима : CM (complete main)
Параметр Endianness формата : Big
Идентификатор кодека : 2000
Продолжительность : 1 ч. 21 м.
Вид битрейта : Постоянный
Битрейт : 192 Кбит/сек
Каналы : 2 канала
Расположение каналов : Front: L R
Частота : 48,0 КГц
Частота кадров : 31,250 кадров/сек (1536 spf)
Битовая глубина : 16 бит
Метод сжатия : С потерями
Размер потока : 112 Мбайт (8%)
Выравнивание : Разделение по промежуткам
Продолжительность промежутка : 42 мс. (1,00 видеокадр)
Время предзагрузки промежутка : 500 мс.

pb.wtf



Скачать Эрнест идет в тюрьму через торрент https://pic1.kartinco.top/images/11/a1nrg.jpg Скачать, смотреть онлайн Эрнест идет в тюрьму бесплантно в хорошем качестве Описание: Непутевый Эрнест из-за коварного плана мафии попадает в тюрьму вместо его двойника — известного преступника. Его собираются ... 5 10 1
Торрент: Зарегистрирован [2016-12-21 18:11] · скачан: 17 раз
Статус: √ проверено
Размер: 1.45 GB
Как cкачать? Как скачать Эрнест идет в тюрьму через торрент | UTorrent

28-11-2019 20:33  

Отключить всю рекламу на сайте

21-12-2016 21:37 Эрнест идет в тюрьму Скачать торрент  

В детстве смотрел приключения Эрнеста в африке, до одурения нравилось! Надо другие части заценить.pb.wtf



    Дорогой пользователь! Огромная просьба, поблагодарите релизера, оцените раздачу и оставьте свои комментарий, если Вы скачали Эрнест идет в тюрьму через торрент бесплатно!
    Комментировать посты могут только пользователи прошедшие не сложную регистрацию
    Показать сообщения:    

    Эрнест идет в тюрьму через торрент
    Скачать бесплатно Эрнест идет в тюрьму
    Эрнест идет в тюрьму скачать торрент
    Эрнест идет в тюрьму смотреть онлайн
    Cкачать фильм Эрнест идет в тюрьму бесплатно
    Эрнест идет в тюрьму скачать торрент в хорошем качестве
    Эрнест идет в тюрьму смотреть онлайн бесплатно в хорошем качестве


    Вы не можете начинать темы
    Вы не можете отвечать на сообщения
    Вы не можете редактировать свои сообщения
    Вы не можете удалять свои сообщения
    Вы не можете голосовать в опросах
    Вы не можете прикреплять файлы к сообщениям
    Вы можете скачивать файлы